Wir suchen wieder Verstärkung für unser Mod-Team. Bewerbung mit Referenzen per PN an mich

Ergebnis 1 bis 1 von 1

Thema: Slipknot - Wacken Open Air Deutsch 2022 1080p AAC HDTV AVC - Dorian

  1. #1
    MyBoerse.bz Pro Member Avatar von Dorian1965
    Registriert seit
    21.07.14
    Beiträge
    3.492
    Bedankt
    0
    Danke erhalten: 1.199

    Slipknot - Wacken Open Air Deutsch 2022 1080p AAC HDTV AVC - Dorian

    Slipknot - Wacken Open Air


    MPEG 4, AVC, 16 : 9, 1920 x 1080p, Deutsch AAC/2



    Slipknot - Wacken Open Air

    Cover / Bild im Download enthalten!

    Inhalt


    Tracks:
    1. Disasterpiece
    2. Wait and Bleed
    3. All Out Life
    4. Sulfur
    5. Before I Forget
    6. The Dying Song (Time to Sing)
    7. Dead Memories
    8. Unsainted
    9. The Heretic Anthem
    10. Psychosocial
    11. Duality
    12. Custer
    13. Spit It Out

    Encore:
    14. People = Shit
    15. Surfacing


    Media Info´s / Bluray Info´s



    GeneralUnique ID : 79432981919723315571524813390557025770 (0x3BC23C6058764DE981E55F689B7115EA)
    Complete name : Slipknot - Wacken Open Air 2022.mkv
    Format : Matroska
    Format version : Version 4
    File size : 4.49 GiB
    Duration : 1 h 27 min
    Overall bit rate mode : Variable
    Overall bit rate : 7 322 kb/s
    Movie name : Slipknot - Wacken Open Air 2022
    Encoded date : UTC 2022-08-05 23:40:21
    Writing application : mkvmerge v63.0.0 ('Everything') 64-bit
    Writing library : libebml v1.4.2 + libmatroska v1.6.4

    Video
    ID : 1
    Format : AVC
    Format/Info : Advanced Video Codec
    Format profile : [email protected]
    Format settings : CABAC / 4 Ref Frames
    Format settings, CABAC : Yes
    Format settings, Reference frames : 4 frames
    Codec ID : V_MPEG4/ISO/AVC
    Duration : 1 h 27 min
    Bit rate mode : Variable
    Bit rate : 7 200 kb/s
    Width : 1 920 pixels
    Height : 1 080 pixels
    Display aspect ratio : 16:9
    Frame rate mode : Constant
    Frame rate : 25.000 FPS
    Standard : Component
    Color space : YUV
    Chroma subsampling : 4:2:0
    Bit depth : 8 bits
    Scan type : Progressive
    Bits/(Pixel*Frame) : 0.139
    Stream size : 4.41 GiB (98%)
    Default : Yes
    Forced : No
    Color range : Limited
    Color primaries : BT.709
    Transfer characteristics : BT.709
    Matrix coefficients : BT.709

    Audio
    ID : 2
    Format : AAC LC
    Format/Info : Advanced Audio Codec Low Complexity
    Codec ID : A_AAC-2
    Duration : 1 h 27 min
    Bit rate : 125 kb/s
    Channel(s) : 2 channels
    Channel layout : L R
    Sampling rate : 48.0 kHz
    Frame rate : 46.875 FPS (1024 SPF)
    Compression mode : Lossy
    Delay relative to video : -505 ms
    Stream size : 78.8 MiB (2%)
    Language : German
    Default : Yes
    Forced : No





    Darsteller: Slipknot
    MPEG 4, AVC, 16 : 9, 1920 x 1080p, Deutsch AAC/2
    Sprache: Deutsch
    Bildseitenformat: 16 : 9
    Datenträger: 1 MKV - File (s)
    Studio: pro shot
    Erscheinungsjahr: 2022
    Produktionsjahr: 2022
    Laufzeit: ca. 87 Minuten
    Größe ca. 4597,76 Megabyte in 4 Links
    Größe der Parts: 500 Megabyte




    Vorhandene Mirror sind immer kompatibel!!!



    Download from # Ddownload.com







    Download from # Filefactory.com







    Download from # Rapidgator.net







    # Passwort

    Dorian



    Falls Euch mein Upload gefallen hat, würde ich mich über ein "Bedanken" freuen. Es spornt für weitere Uploads an und hält den Beitrag am Leben!



    >>>Alle RAR Dateien mit der neusten WinRAR version gepackt<<<
    >>>Zum suchen meiner Uploads z.B. "Dorian&Judas Priest" eingeben und im Thementitel suchen<<<
    >>>Reup & Mirrorwünsche bitte per PN<<<

  2. Die folgenden 2 Benutzer haben sich bei Dorian1965 für diesen Beitrag bedankt:

    Chebu79 (19.08.22), Hunt3r (10.08.22)

  3. #Free Download
    Power Free Uploader
    Registriert seit
    16.07.2014
    Beiträge
    2417
     

Berechtigungen

  • Neue Themen erstellen: Nein
  • Themen beantworten: Nein
  • Anhänge hochladen: Nein
  • Beiträge bearbeiten: Nein
  •