Wir suchen wieder Verstärkung für unser Mod-Team. Bewerbung mit Referenzen per PN an mich

Ergebnis 1 bis 3 von 3

Thema: Death Angel - Wacken Open Air (2022) HD 1080p

  1. #1
    MyBoerse.bz Pro Member
    Registriert seit
    29.12.15
    Beiträge
    2.122
    Bedankt
    0
    Danke erhalten: 82

    Death Angel - Wacken Open Air (2022) HD 1080p

    Death Angel - Wacken Open Air (2022) HD 1080p


    Setlist:

    01 - The Ultra-Violence / Mistress of Pain
    02 - Voracious Souls
    03 - Seemingly Endless Time
    04 - The Dream Calls for Blood
    05 - Son of the Morning
    06 - The Devil Incarnate
    07 - Caster of Shame
    08 - The Moth
    09 - Humanicide
    10 - Absence of Light
    11 - Thrashers
    12 - Bored
    13 - Thrown to the Wolves


    Info:
    Genre: Thrash Metal
    Quality: WEB-DL | 1080p
    Format: MKV | 7315kbps
    Length: 01:20:00 | 4.09Gb
    Video: H.264 | 1920x1080 | 16:9 | 25.000fps
    Audio: AAC | 128kbps | 48kHz | 2 channels: L R
    Language: English

    Download:
    Uploadgig.com, Upload42.com

    pass: 345

    Attention: Files are subject to expiration and can be automatically deleted if their not downloaded 30 days after the last download.


  2. #Free Download
    Power Free Uploader
    Registriert seit
    16.07.2014
    Beiträge
    2417
     

  3. #2
    MyBoerse.bz Pro Member
    Registriert seit
    24.10.21
    Beiträge
    315
    Bedankt
    0
    Danke erhalten: 84

    Death Angel - Wacken Open Air (2022) WEB-DL 1080p

    Death Angel - Wacken Open Air (2022) WEB-DL 1080p


    Genre: Heavy Metal
    Format: mkv
    Video: MPEG4 Video, 1920x1080, 7316 kb/s, 25 fps, 16:9
    Audio: AAC / 2.0 / 48KHz / 128Kbps
    Time: 01:20:00
    Size: 4.11 GB



    Tracklist

    1. The Ultra-Violence / Mistress of Pain
    2. Voracious Souls
    3. Seemingly Endless Time
    4. The Dream Calls for Blood
    5. Son of the Morning
    6. The Devil Incarnate
    7. Caster of Shame
    8. The Moth
    9. Humanicide
    10. Absence of Light
    11. Thrashers
    12. Bored
    13. Thrown to the Wolves


    via ddownload.com, rapidgator.net










  4. #3
    MyBoerse.bz Pro Member Avatar von Dorian1965
    Registriert seit
    21.07.14
    Beiträge
    3.450
    Bedankt
    0
    Danke erhalten: 1.180

    Death Angel - Wacken Open Air Deutsch 2022 1080p AAC HDTV AVC - Dorian

    Death Angel - Wacken Open Air


    MPEG 4, AVC, 16 : 9, 1920 x 1080p, Deutsch AAC/2



    Death Angel - Wacken Open Air

    Cover / Bild im Download enthalten!

    Inhalt


    Tracks:
    01 - The Ultra-Violence / Mistress of Pain
    02 - Voracious Souls
    03 - Seemingly Endless Time
    04 - The Dream Calls for Blood
    05 - Son of the Morning
    06 - The Devil Incarnate
    07 - Caster of Shame
    08 - The Moth
    09 - Humanicide
    10 - Absence of Light
    11 - Thrashers
    12 - Bored
    13 - Thrown to the Wolves


    Media Info´s / Bluray Info´s



    GeneralUnique ID : 236290195603665188950539211268050476197 (0xB1C3D61994827F76F39EA809B6A15CA5)
    Complete name : Death Angel - Wacken Open Air 2022.mkv
    Format : Matroska
    Format version : Version 4
    File size : 4.09 GiB
    Duration : 1 h 20 min
    Overall bit rate mode : Variable
    Overall bit rate : 7 316 kb/s
    Movie name : Death Angel - Wacken Open Air 2022
    Encoded date : UTC 2022-08-07 08:40:01
    Writing application : mkvmerge v63.0.0 ('Everything') 64-bit
    Writing library : libebml v1.4.2 + libmatroska v1.6.4

    Video
    ID : 1
    Format : AVC
    Format/Info : Advanced Video Codec
    Format profile : [email protected]
    Format settings : CABAC / 4 Ref Frames
    Format settings, CABAC : Yes
    Format settings, Reference frames : 4 frames
    Codec ID : V_MPEG4/ISO/AVC
    Duration : 1 h 20 min
    Bit rate mode : Variable
    Bit rate : 7 200 kb/s
    Width : 1 920 pixels
    Height : 1 080 pixels
    Display aspect ratio : 16:9
    Frame rate mode : Constant
    Frame rate : 25.000 FPS
    Standard : Component
    Color space : YUV
    Chroma subsampling : 4:2:0
    Bit depth : 8 bits
    Scan type : Progressive
    Bits/(Pixel*Frame) : 0.139
    Stream size : 4.02 GiB (98%)
    Default : Yes
    Forced : No
    Color range : Limited
    Color primaries : BT.709
    Transfer characteristics : BT.709
    Matrix coefficients : BT.709

    Audio
    ID : 2
    Format : AAC LC
    Format/Info : Advanced Audio Codec Low Complexity
    Codec ID : A_AAC-2
    Duration : 1 h 20 min
    Bit rate : 125 kb/s
    Channel(s) : 2 channels
    Channel layout : L R
    Sampling rate : 48.0 kHz
    Frame rate : 46.875 FPS (1024 SPF)
    Compression mode : Lossy
    Delay relative to video : -262 ms
    Stream size : 71.8 MiB (2%)
    Language : German
    Default : Yes
    Forced : No





    Darsteller: Death Angel
    MPEG 4, AVC, 16 : 9, 1920 x 1080p, Deutsch AAC/2
    Sprache: Deutsch
    Bildseitenformat: 16 : 9
    Datenträger: 1 MKV - File (s)
    Studio: pro shot
    Erscheinungsjahr: 2022
    Produktionsjahr: 2022
    Laufzeit: ca. 80 Minuten
    Größe ca. 4188,16 Megabyte in 9 Links
    Größe der Parts: 500 Megabyte




    Vorhandene Mirror sind immer kompatibel!!!



    Download from # Ddownload.com







    Download from # Filefactory.com







    Download from # Rapidgator.net







    # Passwort

    Dorian



    Falls Euch mein Upload gefallen hat, würde ich mich über ein "Bedanken" freuen. Es spornt für weitere Uploads an und hält den Beitrag am Leben!



    >>>Alle RAR Dateien mit der neusten WinRAR version gepackt<<<
    >>>Zum suchen meiner Uploads z.B. "Dorian&Judas Priest" eingeben und im Thementitel suchen<<<
    >>>Reup & Mirrorwünsche bitte per PN<<<

Berechtigungen

  • Neue Themen erstellen: Nein
  • Themen beantworten: Nein
  • Anhänge hochladen: Nein
  • Beiträge bearbeiten: Nein
  •