Wir suchen wieder Verstärkung für unser Mod-Team. Bewerbung mit Referenzen per PN an mich

Ergebnis 1 bis 2 von 2

Thema: Behemoth - Wacken Open Air (2022) HD 1080p

  1. #1
    MyBoerse.bz Pro Member
    Registriert seit
    29.12.15
    Beiträge
    2.228
    Bedankt
    0
    Danke erhalten: 94

    Behemoth - Wacken Open Air (2022) HD 1080p

    Behemoth - Wacken Open Air (2022) HD 1080p


    Setlist:

    01 - Ora Pro Nobis Lucifer
    02 - Wolves ov Siberia
    03 - Ov Fire and the Void
    04 - Off to War!
    05 - Conquer All
    06 - Ov My Herculean Exile
    07 - Christians to the Lions
    08 - Bartzabel
    09 - Decade of Therion
    10 - Chant for Eschaton 2000
    11 - O Father O Satan O Sun!


    Info:
    Genre: Death Metal | Black Metal
    Quality: WEB-DL | 1080p
    Format: MKV | 7322kbps
    Length: 00:58:30 | 2.98Gb
    Video: H.264 | 1920x1080 | 16:9 | 25.000fps
    Audio: AAC | 128kbps | 48kHz | 2 channels: L R
    Language: English


    Download:
    Uploadgig.com, Fastclick.to, Upload42.com,

    pass: 345

    Attention: Files are subject to expiration and can be automatically deleted if their not downloaded 30 days after the last download.


  2. #Free Download
    Power Free Uploader
    Registriert seit
    16.07.2014
    Beiträge
    2417
     

  3. #2
    MyBoerse.bz Pro Member Avatar von Dorian1965
    Registriert seit
    21.07.14
    Beiträge
    3.492
    Bedankt
    0
    Danke erhalten: 1.199

    Behemoth - Wacken Open Air Deutsch 2022 1080p AAC HDTV AVC - Dorian

    Behemoth - Wacken Open Air


    MPEG 4, AVC, 16 : 9, 1920 x 1080p, Deutsch AAC/2



    Behemoth - Wacken Open Air

    Cover / Bild im Download enthalten!

    Inhalt


    Tracks:

    01 - Ora Pro Nobis Lucifer
    02 - Wolves ov Siberia
    03 - Ov Fire and the Void
    04 - Off to War!
    05 - Conquer All
    06 - Ov My Herculean Exile
    07 - Christians to the Lions
    08 - Bartzabel
    09 - Decade of Therion
    10 - Chant for Eschaton 2000
    11 - O Father O Satan O Sun!


    Media Info´s / Bluray Info´s



    GeneralUnique ID : 172483997991983660413760881040355343951 (0x81C335ACAC6C3D5B7A3F7761EE89BE4F)
    Complete name : Behemoth - Wacken Open Air 2022.mkv
    Format : Matroska
    Format version : Version 4
    File size : 2.99 GiB
    Duration : 58 min 31 s
    Overall bit rate mode : Variable
    Overall bit rate : 7 324 kb/s
    Movie name : Behemoth - Wacken Open Air 2022
    Encoded date : UTC 2022-08-05 23:55:13
    Writing application : mkvmerge v63.0.0 ('Everything') 64-bit
    Writing library : libebml v1.4.2 + libmatroska v1.6.4

    Video
    ID : 1
    Format : AVC
    Format/Info : Advanced Video Codec
    Format profile : [email protected]
    Format settings : CABAC / 4 Ref Frames
    Format settings, CABAC : Yes
    Format settings, Reference frames : 4 frames
    Codec ID : V_MPEG4/ISO/AVC
    Duration : 58 min 30 s
    Bit rate mode : Variable
    Bit rate : 7 200 kb/s
    Width : 1 920 pixels
    Height : 1 080 pixels
    Display aspect ratio : 16:9
    Frame rate mode : Constant
    Frame rate : 25.000 FPS
    Standard : Component
    Color space : YUV
    Chroma subsampling : 4:2:0
    Bit depth : 8 bits
    Scan type : Progressive
    Bits/(Pixel*Frame) : 0.139
    Stream size : 2.94 GiB (98%)
    Default : Yes
    Forced : No
    Color range : Limited
    Color primaries : BT.709
    Transfer characteristics : BT.709
    Matrix coefficients : BT.709

    Audio
    ID : 2
    Format : AAC LC
    Format/Info : Advanced Audio Codec Low Complexity
    Codec ID : A_AAC-2
    Duration : 58 min 30 s
    Bit rate : 125 kb/s
    Channel(s) : 2 channels
    Channel layout : L R
    Sampling rate : 48.0 kHz
    Frame rate : 46.875 FPS (1024 SPF)
    Compression mode : Lossy
    Delay relative to video : -273 ms
    Stream size : 52.5 MiB (2%)
    Language : German
    Default : Yes
    Forced : No





    Darsteller: Behemoth
    MPEG 4, AVC, 16 : 9, 1920 x 1080p, Deutsch AAC/2
    Sprache: Deutsch
    Bildseitenformat: 16 : 9
    Datenträger: 1 MKV - File (s)
    Studio: pro shot
    Erscheinungsjahr: 2022
    Produktionsjahr: 2022
    Laufzeit: ca. 58 Minuten
    Größe ca. 3061,76 Megabyte in 7 Links
    Größe der Parts: 500 Megabyte




    Vorhandene Mirror sind immer kompatibel!!!



    Download from # Ddownload.com







    Download from # Filefactory.com







    Download from # Rapidgator.net







    # Passwort

    Dorian



    Falls Euch mein Upload gefallen hat, würde ich mich über ein "Bedanken" freuen. Es spornt für weitere Uploads an und hält den Beitrag am Leben!



    >>>Alle RAR Dateien mit der neusten WinRAR version gepackt<<<
    >>>Zum suchen meiner Uploads z.B. "Dorian&Judas Priest" eingeben und im Thementitel suchen<<<
    >>>Reup & Mirrorwünsche bitte per PN<<<

Berechtigungen

  • Neue Themen erstellen: Nein
  • Themen beantworten: Nein
  • Anhänge hochladen: Nein
  • Beiträge bearbeiten: Nein
  •