Wir suchen wieder Verstärkung für unser Mod-Team. Bewerbung mit Referenzen per PN an mich

Ergebnis 1 bis 3 von 3

Thema: Tarja - Wacken Open Air (2022) WEB-DL 1080p

  1. #1
    MyBoerse.bz Pro Member
    Registriert seit
    24.10.21
    Beiträge
    367
    Bedankt
    0
    Danke erhalten: 93

    Tarja - Wacken Open Air (2022) WEB-DL 1080p

    Tarja - Wacken Open Air (2022) WEB-DL 1080p


    Genre: Heavy Metal
    Format: mkv
    Video: MPEG4 Video, 1920x1080, 7225 kb/s, 25 fps, 16:9
    Audio: AAC / 2.0 / 48KHz / 128Kbps
    Time: 00:58:00
    Size: 2.97 GB



    Tracklist

    1. Dead Promises
    2. Demons in You
    3. Falling Awake
    4. Goodbye Stranger
    5. Diva
    6. Victim of Ritual
    7. Innocence
    8. I Walk Alone
    9. Over the Hills and Far Away (Gary Moore cover)
    10. Until My Last Breath


    via ddownload.com, rapidgator.net








  2. Folgende Benutzer haben sich bei Melissavita für diesen Beitrag bedankt:

    Donktosch (14.08.22)

  3. #Free Download
    Power Free Uploader
    Registriert seit
    16.07.2014
    Beiträge
    2417
     

  4. #2
    MyBoerse.bz Pro Member
    Registriert seit
    29.12.15
    Beiträge
    2.228
    Bedankt
    0
    Danke erhalten: 94
    Tarja - Wacken Open Air (2022) HD 1080p


    Setlist:

    01 - Dead Promises
    02 - Demons in You
    03 - Falling Awake
    04 - Goodbye Stranger
    05 - Diva
    06 - Victim of Ritual
    07 - Innocence
    08 - I Walk Alone
    09 - Over the Hills and Far Away (Gary Moore cover)
    10 - Until My Last Breath


    Info:
    Genre: Symphonic Metal
    Quality: WEB-DL | 1080p
    Format: MKV | 7320kbps
    Length: 00:57:49 | 2.96Gb
    Video: H.264 | 1920x1080 | 16:9 | 25.000fps
    Audio: AAC | 128kbps | 48kHz | 2 channels: L R
    Language: English


    Download:
    Uploadgig.com, Upload42.com,

    pass: 345

    Attention: Files are subject to expiration and can be automatically deleted if their not downloaded 30 days after the last download.


  5. #3
    MyBoerse.bz Pro Member Avatar von Dorian1965
    Registriert seit
    21.07.14
    Beiträge
    3.492
    Bedankt
    0
    Danke erhalten: 1.199

    Tarja Turunen - Wacken Open Air Deutsch 2022 1080p AAC HDTV AVC - Dorian

    Tarja Turunen - Wacken Open Air


    MPEG 4, AVC, 16 : 9, 1920 x 1080p, Deutsch AAC/2



    Tarja Turunen - Wacken Open Air

    Cover / Bild im Download enthalten!

    Inhalt


    Tracks:
    1. Dead Promises
    2. Demons in You
    3. Falling Awake
    4. Goodbye Stranger
    5. Diva
    6. Victim of Ritual
    7. Innocence
    8. I Walk Alone
    9. Over the Hills and Far Away (Gary Moore cover)
    10. Until My Last Breath


    Media Info´s / Bluray Info´s



    GeneralUnique ID : 78979299191792953474844977689252043156 (0x3B6ADC17443C238A34F9504AE3C79994)
    Complete name : Tarja Turunen - Wacken Open Air 2022.mkv
    Format : Matroska
    Format version : Version 4
    File size : 2.96 GiB
    Duration : 57 min 49 s
    Overall bit rate mode : Variable
    Overall bit rate : 7 320 kb/s
    Movie name : Tarja - Wacken Open Air 2022
    Encoded date : UTC 2022-08-06 18:18:27
    Writing application : mkvmerge v63.0.0 ('Everything') 64-bit
    Writing library : libebml v1.4.2 + libmatroska v1.6.4

    Video
    ID : 1
    Format : AVC
    Format/Info : Advanced Video Codec
    Format profile : [email protected]
    Format settings : CABAC / 4 Ref Frames
    Format settings, CABAC : Yes
    Format settings, Reference frames : 4 frames
    Codec ID : V_MPEG4/ISO/AVC
    Duration : 57 min 47 s
    Bit rate mode : Variable
    Bit rate : 7 200 kb/s
    Width : 1 920 pixels
    Height : 1 080 pixels
    Display aspect ratio : 16:9
    Frame rate mode : Constant
    Frame rate : 25.000 FPS
    Standard : Component
    Color space : YUV
    Chroma subsampling : 4:2:0
    Bit depth : 8 bits
    Scan type : Progressive
    Bits/(Pixel*Frame) : 0.139
    Stream size : 2.90 GiB (98%)
    Default : Yes
    Forced : No
    Color range : Limited
    Color primaries : BT.709
    Transfer characteristics : BT.709
    Matrix coefficients : BT.709

    Audio
    ID : 2
    Format : AAC LC
    Format/Info : Advanced Audio Codec Low Complexity
    Codec ID : A_AAC-2
    Duration : 57 min 48 s
    Bit rate : 125 kb/s
    Channel(s) : 2 channels
    Channel layout : L R
    Sampling rate : 48.0 kHz
    Frame rate : 46.875 FPS (1024 SPF)
    Compression mode : Lossy
    Delay relative to video : -1 s 241 ms
    Stream size : 51.8 MiB (2%)
    Language : German
    Default : Yes
    Forced : No





    Darsteller: Tarja Turunen
    MPEG 4, AVC, 16 : 9, 1920 x 1080p, Deutsch AAC/2
    Sprache: Deutsch
    Bildseitenformat: 16 : 9
    Datenträger: 1 MKV - File (s)
    Studio: pro shot
    Erscheinungsjahr: 2022
    Produktionsjahr: 2022
    Laufzeit: ca. 58 Minuten
    Größe ca. 3020,8 Megabyte in 7 Links
    Größe der Parts: 500 Megabyte




    Vorhandene Mirror sind immer kompatibel!!!



    Download from # Ddownload.com







    Download from # Filefactory.com







    Download from # Rapidgator.net







    # Passwort

    Dorian



    Falls Euch mein Upload gefallen hat, würde ich mich über ein "Bedanken" freuen. Es spornt für weitere Uploads an und hält den Beitrag am Leben!



    >>>Alle RAR Dateien mit der neusten WinRAR version gepackt<<<
    >>>Zum suchen meiner Uploads z.B. "Dorian&Judas Priest" eingeben und im Thementitel suchen<<<
    >>>Reup & Mirrorwünsche bitte per PN<<<

Berechtigungen

  • Neue Themen erstellen: Nein
  • Themen beantworten: Nein
  • Anhänge hochladen: Nein
  • Beiträge bearbeiten: Nein
  •