Wir suchen wieder Verstärkung für unser Mod-Team. Bewerbung mit Referenzen per PN an mich

Ergebnis 1 bis 3 von 3

Thema: Kadavar - Wacken Open Air (2022) WEB-DL 1080p

  1. #1
    MyBoerse.bz Pro Member
    Registriert seit
    24.10.21
    Beiträge
    367
    Bedankt
    0
    Danke erhalten: 93

    Kadavar - Wacken Open Air (2022) WEB-DL 1080p

    Kadavar - Wacken Open Air (2022) WEB-DL 1080p


    Genre: Rock
    Format: mkv
    Video: MPEG4 Video, 1920x1080, 7324 kb/s, 25 fps, 16:9
    Audio: AAC / 2.0 / 48KHz / 128Kbps
    Time: 00:45:00
    Size: 2.35 GB



    Tracklist

    1. Lord of the Sky
    2. Into the Wormhole
    3. Doomsday Machine
    4. Come Back Life
    5. Black Sun
    6. Die Baby Die
    7. All Our Thoughts
    8. Pale Blue Eyes


    via ddownload.com, rapidgator.net








  2. #Free Download
    Power Free Uploader
    Registriert seit
    16.07.2014
    Beiträge
    2417
     

  3. #2
    MyBoerse.bz Pro Member Avatar von Dorian1965
    Registriert seit
    21.07.14
    Beiträge
    3.492
    Bedankt
    0
    Danke erhalten: 1.199

    Kadavar - Wacken Open Air Deutsch 2022 1080p AAC HDTV AVC - Dorian

    Kadavar - Wacken Open Air


    MPEG 4, AVC, 16 : 9, 1920 x 1080p, Deutsch AAC/2



    Kadavar - Wacken Open Air

    Cover / Bild im Download enthalten!

    Inhalt


    Tracks:
    1. Lord of the Sky
    2. Into the Wormhole
    3. Doomsday Machine
    4. Come Back Life
    5. Black Sun
    6. Die Baby Die
    7. All Our Thoughts
    8. Pale Blue Eyes


    Media Info´s / Bluray Info´s



    GeneralUnique ID : 125801716539110937708917518917654166766 (0x5EA4877FCC64235FEC2FFF4B97AA3CEE)
    Complete name : Kadavar - Wacken Open Air 2022.mkv
    Format : Matroska
    Format version : Version 4
    File size : 2.34 GiB
    Duration : 45 min 42 s
    Overall bit rate mode : Variable
    Overall bit rate : 7 324 kb/s
    Movie name : Kadavar - Wacken Open Air 2022
    Encoded date : UTC 2022-08-05 16:09:35
    Writing application : mkvmerge v63.0.0 ('Everything') 64-bit
    Writing library : libebml v1.4.2 + libmatroska v1.6.4

    Video
    ID : 1
    Format : AVC
    Format/Info : Advanced Video Codec
    Format profile : [email protected]
    Format settings : CABAC / 4 Ref Frames
    Format settings, CABAC : Yes
    Format settings, Reference frames : 4 frames
    Codec ID : V_MPEG4/ISO/AVC
    Duration : 45 min 41 s
    Bit rate mode : Variable
    Bit rate : 7 200 kb/s
    Width : 1 920 pixels
    Height : 1 080 pixels
    Display aspect ratio : 16:9
    Frame rate mode : Constant
    Frame rate : 25.000 FPS
    Standard : Component
    Color space : YUV
    Chroma subsampling : 4:2:0
    Bit depth : 8 bits
    Scan type : Progressive
    Bits/(Pixel*Frame) : 0.139
    Stream size : 2.30 GiB (98%)
    Default : Yes
    Forced : No
    Color range : Limited
    Color primaries : BT.709
    Transfer characteristics : BT.709
    Matrix coefficients : BT.709

    Audio
    ID : 2
    Format : AAC LC
    Format/Info : Advanced Audio Codec Low Complexity
    Codec ID : A_AAC-2
    Duration : 45 min 41 s
    Bit rate : 125 kb/s
    Channel(s) : 2 channels
    Channel layout : L R
    Sampling rate : 48.0 kHz
    Frame rate : 46.875 FPS (1024 SPF)
    Compression mode : Lossy
    Delay relative to video : -980 ms
    Stream size : 41.0 MiB (2%)
    Language : German
    Default : Yes
    Forced : No





    Darsteller: Kadavar
    MPEG 4, AVC, 16 : 9, 1920 x 1080p, Deutsch AAC/2
    Sprache: Deutsch
    Bildseitenformat: 16 : 9
    Datenträger: 1 MKV - File (s)
    Studio: pro shot
    Erscheinungsjahr: 2022
    Produktionsjahr: 2022
    Laufzeit: ca. 45 Minuten
    Größe ca. 2385,92 Megabyte in 5 Links
    Größe der Parts: 500 Megabyte




    Vorhandene Mirror sind immer kompatibel!!!



    Download from # Ddownload.com







    Download from # Filefactory.com







    Download from # Rapidgator.net







    # Passwort

    Dorian



    Falls Euch mein Upload gefallen hat, würde ich mich über ein "Bedanken" freuen. Es spornt für weitere Uploads an und hält den Beitrag am Leben!



    >>>Alle RAR Dateien mit der neusten WinRAR version gepackt<<<
    >>>Zum suchen meiner Uploads z.B. "Dorian&Judas Priest" eingeben und im Thementitel suchen<<<
    >>>Reup & Mirrorwünsche bitte per PN<<<

  4. #3
    MyBoerse.bz Pro Member
    Registriert seit
    29.12.15
    Beiträge
    2.228
    Bedankt
    0
    Danke erhalten: 94
    Kadavar - Wacken Open Air (2022) HD 1080p


    Setlist:

    01 - Lord of the Sky
    02 - Into the Wormhole
    03 - Doomsday Machine
    04 - Come Back Life
    05 - Black Sun
    06 - Die Baby Die
    07 - All Our Thoughts
    08 - Pale Blue Eyes


    Info:
    Genre: Hard Rock | Psychedelic Rock
    Quality: WEB-DL | 1080p
    Format: MKV | 7324kbps
    Length: 00:45:42 | 2.34Gb
    Video: H.264 | 1920x1080 | 16:9 | 25.000fps
    Audio: AAC | 128kbps | 48kHz | 2 channels: L R
    Language: English

    Download:
    Uploadgig.com, Fastclick.to, Upload42.com,

    pass: 345

    Attention: Files are subject to expiration and can be automatically deleted if their not downloaded 30 days after the last download.


Berechtigungen

  • Neue Themen erstellen: Nein
  • Themen beantworten: Nein
  • Anhänge hochladen: Nein
  • Beiträge bearbeiten: Nein
  •