Wir suchen wieder Verstärkung für unser Mod-Team. Bewerbung mit Referenzen per PN an mich

Ergebnis 1 bis 3 von 3

Thema: Loudness - Wacken Open Air (2022) WEB-DL 1080p

  1. #1
    MyBoerse.bz Pro Member
    Registriert seit
    24.10.21
    Beiträge
    313
    Bedankt
    0
    Danke erhalten: 83

    Loudness - Wacken Open Air (2022) WEB-DL 1080p

    Loudness - Wacken Open Air (2022) WEB-DL 1080p


    Genre: Rock
    Format: mkv
    Video: MPEG4 Video, 1920x1080, 8999 kb/s, 25 fps, 16:9
    Audio: AAC / 2.0 / 48KHz / 128Kbps
    Time: 00:52:00
    Size: 3.32 GB



    Tracklist

    1. OEOEO
    2. Nihon no Kokoro
    3. Crazy Nights
    4. Like Hell
    5. Stand or Fall
    6. Hunger for More
    7. Yamato damashii
    8. In the Mirror
    9. Crazy Doctor
    10. S.D.I.


    via ddownload.com, rapidgator.net








  2. #Free Download
    Power Free Uploader
    Registriert seit
    16.07.2014
    Beiträge
    2417
     

  3. #2
    MyBoerse.bz Pro Member
    Registriert seit
    29.12.15
    Beiträge
    2.118
    Bedankt
    0
    Danke erhalten: 82
    Loudness - Wacken Open Air (2022) HD 1080p


    Setlist:

    01 - OEOEO
    02 - Nihon no Kokoro
    03 - Crazy Nights
    04 - Like Hell
    05 - Stand or Fall
    06 - Hunger for More
    07 - Yamato damashii
    08 - In the Mirror
    09 - Crazy Doctor
    10 - S.D.I.


    Info:
    Genre: Heavy Metal | Glam Metal
    Quality: WEB-DL | 1080p
    Format: MKV | 8999kbps
    Length: 00:52:32 | 3.3Gb
    Video: H.264 | 1920x1080 | 16:9 | 25.000fps
    Audio: AAC | 128kbps | 48kHz | 2 channels: L R
    Language: English


    Download:
    Uploadgig.com, Fastclick.to, Upload42.com,

    pass: 345

    Attention: Files are subject to expiration and can be automatically deleted if their not downloaded 30 days after the last download.


  4. #3
    MyBoerse.bz Pro Member Avatar von Dorian1965
    Registriert seit
    21.07.14
    Beiträge
    3.450
    Bedankt
    0
    Danke erhalten: 1.180

    Loudness - Wacken Open Air Deutsch 2022 1080p AAC HDTV AVC - Dorian

    Loudness - Wacken Open Air


    MPEG 4, AVC, 16 : 9, 1920 x 1080p, Deutsch AAC/2



    Loudness - Wacken Open Air

    Cover / Bild im Download enthalten!

    Inhalt


    Tracks:
    1. OEOEO
    2. Nihon no Kokoro
    3. Crazy Nights
    4. Like Hell
    5. Stand or Fall
    6. Hunger for More
    7. Yamato damashii
    8. In the Mirror
    9. Crazy Doctor
    10. S.D.I.


    Media Info´s / Bluray Info´s



    GeneralUnique ID : 167995451779472373404266755916752439246 (0x7E62BF429ECA94B98BC7085CE4B347CE)
    Complete name : Loudness - Wacken Open Air 2022.mkv
    Format : Matroska
    Format version : Version 4
    File size : 3.30 GiB
    Duration : 52 min 32 s
    Overall bit rate : 8 999 kb/s
    Movie name : Loudness - Wacken Open Air 2022
    Encoded date : UTC 2022-08-05 21:01:58
    Writing application : mkvmerge v63.0.0 ('Everything') 64-bit
    Writing library : libebml v1.4.2 + libmatroska v1.6.4

    Video
    ID : 1
    Format : AVC
    Format/Info : Advanced Video Codec
    Format profile : [email protected]
    Format settings : CABAC / 4 Ref Frames
    Format settings, CABAC : Yes
    Format settings, Reference frames : 4 frames
    Codec ID : V_MPEG4/ISO/AVC
    Duration : 52 min 32 s
    Bit rate mode : Constant
    Bit rate : 9 000 kb/s
    Width : 1 920 pixels
    Height : 1 080 pixels
    Display aspect ratio : 16:9
    Frame rate mode : Constant
    Frame rate : 25.000 FPS
    Color space : YUV
    Chroma subsampling : 4:2:0
    Bit depth : 8 bits
    Scan type : Progressive
    Bits/(Pixel*Frame) : 0.174
    Stream size : 3.25 GiB (99%)
    Writing library : x264 core 148
    Encoding settings : cabac=1 / ref=4 / deblock=1:-1:-1 / analyse=0x1:0x111 / me=hex / subme=7 / psy=1 / psy_rd=1.00:0.15 / mixed_ref=1 / me_range=16 / chroma_me=1 / trellis=1 / 8x8dct=0 / cqm=0 / deadzone=21,11 / fast_pskip=1 / chroma_qp_offset=-3 / threads=10 / lookahead_threads=1 / sliced_threads=0 / nr=0 / decimate=1 / interlaced=0 / paff=0 / bluray_compat=0 / constrained_intra=0 / bframes=3 / b_pyramid=2 / b_adapt=1 / b_bias=0 / direct=1 / weightb=1 / open_gop=0 / weightp=2 / keyint=50 / keyint_min=5 / scenecut=0 / intra_refresh=0 / rc_lookahead=40 / rc=cbr / mbtree=1 / bitrate=9000 / ratetol=1.0 / qcomp=0.60 / qpmin=0 / qpmax=69 / qpstep=4 / vbv_maxrate=9000 / vbv_bufsize=18000 / nal_hrd=cbr / filler=1 / ip_ratio=1.40 / aq=1:1.00
    Default : Yes
    Forced : No
    Color range : Limited
    Color primaries : BT.709
    Transfer characteristics : BT.709
    Matrix coefficients : BT.709

    Audio
    ID : 2
    Format : AAC LC
    Format/Info : Advanced Audio Codec Low Complexity
    Codec ID : A_AAC-2
    Duration : 52 min 32 s
    Bit rate : 128 kb/s
    Channel(s) : 2 channels
    Channel layout : L R
    Sampling rate : 48.0 kHz
    Frame rate : 46.875 FPS (1024 SPF)
    Compression mode : Lossy
    Stream size : 48.1 MiB (1%)
    Language : English
    Default : Yes
    Forced : No





    Darsteller: Loudness
    MPEG 4, AVC, 16 : 9, 1920 x 1080p, Deutsch AAC/2
    Sprache: Deutsch
    Bildseitenformat: 16 : 9
    Datenträger: 1 MKV - File (s)
    Studio: pro shot
    Erscheinungsjahr: 2022
    Produktionsjahr: 2022
    Laufzeit: ca. 52 Minuten
    Größe ca. 3379,2 Megabyte in 7 Links
    Größe der Parts: 500 Megabyte




    Vorhandene Mirror sind immer kompatibel!!!



    Download from # Ddownload.com







    Download from # Filefactory.com







    Download from # Rapidgator.net







    # Passwort

    Dorian



    Falls Euch mein Upload gefallen hat, würde ich mich über ein "Bedanken" freuen. Es spornt für weitere Uploads an und hält den Beitrag am Leben!



    >>>Alle RAR Dateien mit der neusten WinRAR version gepackt<<<
    >>>Zum suchen meiner Uploads z.B. "Dorian&Judas Priest" eingeben und im Thementitel suchen<<<
    >>>Reup & Mirrorwünsche bitte per PN<<<

Berechtigungen

  • Neue Themen erstellen: Nein
  • Themen beantworten: Nein
  • Anhänge hochladen: Nein
  • Beiträge bearbeiten: Nein
  •