Wir suchen wieder Verstärkung für unser Mod-Team. Bewerbung mit Referenzen per PN an mich

Ergebnis 1 bis 3 von 3

Thema: In Extremo - Wacken Open Air (2022) WEB-DL 1080p

  1. #1
    MyBoerse.bz Pro Member
    Registriert seit
    24.10.21
    Beiträge
    315
    Bedankt
    0
    Danke erhalten: 84

    In Extremo - Wacken Open Air (2022) WEB-DL 1080p

    In Extremo - Wacken Open Air (2022) WEB-DL 1080p


    Genre: Metal
    Format: mkv
    Video: MPEG4 Video, 1920x1080, 9059 kb/s, 25 fps, 16:9
    Audio: AAC / 2.0 / 48KHz / 128Kbps
    Time: 01:12:00
    Size: 4.58 GB



    Tracklist

    1. Troja
    2. Feuertaufe
    3. Vollmond
    4. Kompass zur Sonne
    5. Unsichtbar
    6. Liam
    7. Quid pro Quo
    8. Lieb Vaterland, magst ruhig sein
    9. Rasend Herz
    10. Sängerkrieg
    11. Sternhagelvoll
    12. Frei zu sein
    13. Störtebeker
    14. Sängerkrieg
    15. Pikse Palve


    via ddownload.com, rapidgator.net










  2. Die folgenden 2 Benutzer haben sich bei Melissavita für diesen Beitrag bedankt:

    Honk66 (07.08.22), knarf99 (08.08.22)

  3. #Free Download
    Power Free Uploader
    Registriert seit
    16.07.2014
    Beiträge
    2417
     

  4. #2
    MyBoerse.bz Pro Member Avatar von Dorian1965
    Registriert seit
    21.07.14
    Beiträge
    3.450
    Bedankt
    0
    Danke erhalten: 1.180

    In Extremo - Wacken Open Air Deutsch 2022 1080p AAC HDTV AVC - Dorian

    In Extremo - Wacken Open Air


    MPEG 4, AVC, 16 : 9, 1920 x 1080p, Deutsch AAC/2



    In Extremo - Wacken Open Air

    Cover / Bild im Download enthalten!

    Inhalt


    Tracks:
    1. Troja
    2. Feuertaufe
    3. Vollmond
    4. Kompass zur Sonne
    5. Unsichtbar
    6. Liam
    7. Quid pro Quo
    8. Lieb Vaterland, magst ruhig sein
    9. Rasend Herz
    10. Sängerkrieg
    11. Sternhagelvoll
    12. Frei zu sein
    13. Störtebeker
    14. Sängerkrieg
    15. Pikse Palve


    Media Info´s / Bluray Info´s



    GeneralUnique ID : 252095754381957183685979306695514312054 (0xBDA7E05010E4F42F830450C7F03ECD76)
    Complete name : In Extremo - Wacken Open Air 2022.mkv
    Format : Matroska
    Format version : Version 4
    File size : 4.57 GiB
    Duration : 1 h 12 min
    Overall bit rate : 9 059 kb/s
    Movie name : In Extremo - Wacken Open Air 2022
    Encoded date : UTC 2022-08-06 16:47:23
    Writing application : mkvmerge v63.0.0 ('Everything') 64-bit
    Writing library : libebml v1.4.2 + libmatroska v1.6.4

    Video
    ID : 1
    Format : AVC
    Format/Info : Advanced Video Codec
    Format profile : [email protected]
    Format settings : CABAC / 4 Ref Frames
    Format settings, CABAC : Yes
    Format settings, Reference frames : 4 frames
    Codec ID : V_MPEG4/ISO/AVC
    Duration : 1 h 12 min
    Bit rate mode : Constant
    Bit rate : 9 000 kb/s
    Width : 1 920 pixels
    Height : 1 080 pixels
    Display aspect ratio : 16:9
    Frame rate mode : Constant
    Frame rate : 25.000 FPS
    Color space : YUV
    Chroma subsampling : 4:2:0
    Bit depth : 8 bits
    Scan type : Progressive
    Bits/(Pixel*Frame) : 0.174
    Stream size : 4.50 GiB (99%)
    Writing library : x264 core 148
    Encoding settings : cabac=1 / ref=4 / deblock=1:-1:-1 / analyse=0x1:0x111 / me=hex / subme=7 / psy=1 / psy_rd=1.00:0.15 / mixed_ref=1 / me_range=16 / chroma_me=1 / trellis=1 / 8x8dct=0 / cqm=0 / deadzone=21,11 / fast_pskip=1 / chroma_qp_offset=-3 / threads=12 / lookahead_threads=2 / sliced_threads=0 / nr=0 / decimate=1 / interlaced=0 / paff=0 / bluray_compat=0 / constrained_intra=0 / bframes=3 / b_pyramid=2 / b_adapt=1 / b_bias=0 / direct=1 / weightb=1 / open_gop=0 / weightp=2 / keyint=50 / keyint_min=5 / scenecut=0 / intra_refresh=0 / rc_lookahead=40 / rc=cbr / mbtree=1 / bitrate=9000 / ratetol=1.0 / qcomp=0.60 / qpmin=0 / qpmax=69 / qpstep=4 / vbv_maxrate=9000 / vbv_bufsize=18000 / nal_hrd=cbr / filler=1 / ip_ratio=1.40 / aq=1:1.00
    Default : Yes
    Forced : No
    Color range : Limited
    Color primaries : BT.709
    Transfer characteristics : BT.709
    Matrix coefficients : BT.709

    Audio
    ID : 2
    Format : AAC LC
    Format/Info : Advanced Audio Codec Low Complexity
    Codec ID : A_AAC-2
    Duration : 1 h 12 min
    Bit rate : 128 kb/s
    Channel(s) : 2 channels
    Channel layout : L R
    Sampling rate : 48.0 kHz
    Frame rate : 46.875 FPS (1024 SPF)
    Compression mode : Lossy
    Stream size : 66.1 MiB (1%)
    Language : German
    Default : Yes
    Forced : No





    Darsteller: In Extremo
    MPEG 4, AVC, 16 : 9, 1920 x 1080p, Deutsch AAC/2
    Sprache: Deutsch
    Bildseitenformat: 16 : 9
    Datenträger: 1 MKV - File (s)
    Studio: pro shot
    Erscheinungsjahr: 2022
    Produktionsjahr: 2022
    Laufzeit: ca. 72 Minuten
    Größe ca. 4679,68 Megabyte in 10 Links
    Größe der Parts: 500 Megabyte




    Vorhandene Mirror sind immer kompatibel!!!



    Download from # Ddownload.com







    Download from # Filefactory.com







    Download from # Rapidgator.net







    # Passwort

    Dorian



    Falls Euch mein Upload gefallen hat, würde ich mich über ein "Bedanken" freuen. Es spornt für weitere Uploads an und hält den Beitrag am Leben!



    >>>Alle RAR Dateien mit der neusten WinRAR version gepackt<<<
    >>>Zum suchen meiner Uploads z.B. "Dorian&Judas Priest" eingeben und im Thementitel suchen<<<
    >>>Reup & Mirrorwünsche bitte per PN<<<

  5. #3
    MyBoerse.bz Pro Member
    Registriert seit
    29.12.15
    Beiträge
    2.122
    Bedankt
    0
    Danke erhalten: 82
    In Extremo - Wacken Open Air (2022) HD 1080p


    Setlist:

    01 - Troja
    02 - Feuertaufe
    03 - Vollmond
    04 - Kompass zur Sonne
    05 - Unsichtbar
    06 - Liam
    07 - Quid pro Quo
    08 - Lieb Vaterland, magst ruhig sein
    09 - Rasend Herz
    10 - Sängerkrieg
    11 - Sternhagelvoll
    12 - Frei zu sein
    13 - Störtebeker
    14 - Sängerkrieg
    15 - Pikse Palve


    Info:
    Genre: Medieval Metal | Folk Metal
    Quality: WEB-DL | 1080p
    Format: MKV | 8955kbps
    Length: 01:12:00 | 4.57Gb
    Video: H.264 | 1920x1080 | 16:9 | 25.000fps
    Audio: AAC | 128kbps | 48kHz | 2 channels: L R
    Language: German

    Download:
    Uploadgig.com, Fastclick.to, Upload42.com,

    pass: 345

    Attention: Files are subject to expiration and can be automatically deleted if their not downloaded 30 days after the last download.


Berechtigungen

  • Neue Themen erstellen: Nein
  • Themen beantworten: Nein
  • Anhänge hochladen: Nein
  • Beiträge bearbeiten: Nein
  •