Ergebnis 1 bis 1 von 1

Thema: Treasures Decoded Jäger der verlorenen Schätze COMPLETE S01 bis S05 German 720p HDTV x264 - iND

  1. #1
    MyBoerse.bz Pro Member
    Registriert seit
    28.09.14
    Beiträge
    1.546
    Bedankt
    0
    Danke erhalten: 625

    Treasures Decoded Jäger der verlorenen Schätze COMPLETE S01 bis S05 German 720p HDTV x264 - iND



    Treasures Decoded Jäger der verlorenen Schätze COMPLETE S01 bis S05 German 720p HDTV x264 - iND

    „Treasures Decoded – Jäger der verlorenen Schätze“ dokumentiert die Aufarbeitung dieser und anderer Fragen und versucht, die Jahrhunderte lang ungeklärten Geschehnisse aufzuarbeiten. Heute können Wissenschaftler mit den neuesten Methoden Zeichen lesen, die sie damals noch nicht erkennen konnten. Mit Hilfe von moderner Forensik und experimenteller Archäologie gehen die „Detektive der Vergangenheit“ den großen offenen Fragen der Geschichte erneut auf den Grund. Somit können uralte Geheimnisse möglicherweise schon bald gelüftet und die Weltgeschichte um viele spannende Kapitel bereichert werden.

    Staffel 1:
    1.01 Die Frau Jesu
    1.02 Die Legende der Wikingerkarte
    1.03 Das Turiner Grabtuch
    1.04 Im Zeichen der Sphinx
    1.05 Eldorado - Die goldene Stadt

    Staffel 2:
    2.01 Die Steinskulpturen der Osterinseln
    2.02 Die Cheops-Pyramide
    2.03 Die Büste der Nofretete
    2.04 Blackbeard
    2.05 Die Bundeslade
    2.06 Die heilige Lanze

    Staffel 3:
    3.01 Das Geheimnis der Pyramidenstadt
    3.02 Die Kupferrolle vom Toten Meer
    3.03 Die verlorene Stadt der Pharaonen
    3.04 Das Geheimnis um Tutanchamuns Grab
    3.05 Die Suche nach dem Heiligen Gral
    3.06 Die Suche nach Atlantis

    Staffel 4:
    4.01 Der Turmbau zu Babel
    4.02 Das Geheimnis von Petra
    4.03 Die Toten von Stonehenge
    4.04 Die Skelette von York
    4.05 Die zehn Plagen
    4.06 Das Geheimnis der Schrumpfköpfe
    4.07 Das Geheimnis der Moorleichen
    4.08 Der Garten Eden

    Staffel 5:
    5.01 Die verlorenen Schätze Ninives
    5.02 Das Geheimnis des Wikingergrabs
    5.03 Der geheimnisvolle Pharao
    5.04 Ägyptens verlorene Prinzessin
    5.05 Ägyptens Tiere der Unterwelt
    5.06 König Salomos sagenhafter Reichtum

    Kurzinfo:
    Auflösung: 1280x720, 16:9
    Staffel 1 bis 4
    Video: 4 000 kb/s, [email protected], 25.000 fps
    Audio: Deutsch AC3 5.1 384 kbps
    Staffel 5:
    7 000 kb/s, [email protected], 50.000 fps
    Audio: Deutsch AC3 2.0 448 kbps
    jede Folge einzeln herunterladbar

    Media-Info:
    Code:
    General
    Unique ID                   : 54478860022489623845371198639977407920 (0x28FC3F2D52F19E3C0F6AF6DA0A6A25B0)
    Complete name               : 1.01 Die Frau Jesu.mkv
    Format                      : Matroska
    Format version              : Version 4 / Version 2
    File size                   : 1.31 GiB
    Duration                    : 42 min 46 s
    Overall bit rate            : 4 378 kb/s
    Encoded date                : UTC 2018-11-28T11:42:37Z
    Writing application         : HandBrake 1.1.2 2018090500
    Writing library             : Lavf57.7.2
    
    Video
    ID                          : 1
    Format                      : AVC
    Format/Info                 : Advanced Video Codec
    Format profile              : [email protected]
    Format settings             : CABAC / 4 Ref Frames
    Format settings, CABAC      : Yes
    Format settings, ReFrames   : 4 frames
    Codec ID                    : V_MPEG4/ISO/AVC
    Duration                    : 42 min 46 s
    Bit rate                    : 4 000 kb/s
    Width                       : 1 280 pixels
    Height                      : 720 pixels
    Display aspect ratio        : 16:9
    Frame rate mode             : Constant
    Frame rate                  : 25.000 FPS
    Color space                 : YUV
    Chroma subsampling          : 4:2:0
    Bit depth                   : 8 bits
    Scan type                   : Progressive
    Bits/(Pixel*Frame)          : 0.174
    Stream size                 : 1.17 GiB (89%)
    Writing library             : x264 core 155 r2901 7d0ff22
    Encoding settings           : cabac=1 / ref=3 / deblock=1:0:0 / analyse=0x3:0x113 / me=hex / subme=7 / psy=1 / psy_rd=1.00:0.00 / mixed_ref=1 / me_range=16 / chroma_me=1 / trellis=1 / 8x8dct=1 / cqm=0 / deadzone=21,11 / fast_pskip=1 / chroma_qp_offset=-2 / threads=18 / lookahead_threads=3 / sliced_threads=0 / nr=0 / decimate=1 / interlaced=0 / bluray_compat=0 / constrained_intra=0 / bframes=3 / b_pyramid=2 / b_adapt=1 / b_bias=0 / direct=1 / weightb=1 / open_gop=0 / weightp=2 / keyint=250 / keyint_min=25 / scenecut=40 / intra_refresh=0 / rc_lookahead=40 / rc=abr / mbtree=1 / bitrate=4000 / ratetol=1.0 / qcomp=0.60 / qpmin=0 / qpmax=69 / qpstep=4 / vbv_maxrate=62500 / vbv_bufsize=78125 / nal_hrd=none / filler=0 / ip_ratio=1.40 / aq=1:1.00
    Default                     : Yes
    Forced                      : No
    Color range                 : Limited
    Color primaries             : BT.709
    Transfer characteristics    : BT.709
    Matrix coefficients         : BT.709
    
    Audio
    ID                          : 2
    Format                      : AC-3
    Format/Info                 : Audio Coding 3
    Codec ID                    : A_AC3
    Duration                    : 42 min 46 s
    Bit rate mode               : Constant
    Bit rate                    : 384 kb/s
    Channel(s)                  : 6 channels
    Channel positions           : Front: L C R, Side: L R, LFE
    Sampling rate               : 48.0 kHz
    Frame rate                  : 31.250 FPS (1536 SPF)
    Bit depth                   : 16 bits
    Compression mode            : Lossy
    Stream size                 : 117 MiB (9%)
    Title                       : Surround
    Service kind                : Complete Main
    Default                     : Yes
    Forced                      : No


    Dauer: 1440 Min | Format: mkv | Größe: 47,38 GB

    Download Share-online.biz:


    Passwort:
    movie-blog.org

  2. #Free Download
     

Berechtigungen

  • Neue Themen erstellen: Nein
  • Themen beantworten: Nein
  • Anhänge hochladen: Nein
  • Beiträge bearbeiten: Nein
  •