Ergebnis 1 bis 1 von 1

Thema: China von oben 2015 German AC3 720p HDTV x264 - iND

  1. #1
    MyBoerse.bz Pro Member
    Registriert seit
    28.09.14
    Beiträge
    1.439
    Bedankt
    0
    Danke erhalten: 597

    China von oben 2015 German AC3 720p HDTV x264 - iND



    China von oben 2015 German AC3 720p HDTV x264 - iND

    China ist ein Land der Superlative: In keinem anderen Staat leben so viele Menschen, kein anderes Land wächst so schnell und dynamisch. Der Wohnraum von ganz New York City wird in China jedes Jahr gebaut, Großstädte entstehen in Rekordzeit. Andererseits sind Chinas uralte Traditionen bis heute lebendig. Neben Megacitys mit extremer Bevölkerungsdichte ist die Hälfte des Landes fast unbewohnt: Gigantische Wüsten, Hochgebirge und spektakuläre Karstlandschaften prägen eine einzigartige Topografie. Für diese internationale Filmproduktion konnte das Riesenreich China erstmals mit Cineflex-Helikoptern und Flugdrohnen aus der Luft erkundet werden.

    Kurzinfo:
    Video: 9 319 kb/s, x264 High L4, 50.000 FPS
    Auflösung: 1280x720, 16:9
    Audio: German AC3 2.0 484 kb/s

    Media-Info:
    Code:
    General
    Unique ID                   : 204690782360898572688159264036593599847 (0x99FE02BDD15E8DBCD7F92D33F2E80567)
    Complete name               : 1. Spuren der Vergangenheit.mkv
    Format                      : Matroska
    Format version              : Version 4 / Version 2
    File size                   : 2.83 GiB
    Duration                    : 43 min 24 s
    Overall bit rate            : 9 319 kb/s
    Encoded date                : UTC 2018-10-13 03:01:45
    Writing application         : mkvmerge v21.0.0 ('Tardigrades Will Inherit The Earth') 64-bit
    Writing library             : libebml v1.3.5 + libmatroska v1.4.8
    
    Video
    ID                          : 1
    Format                      : AVC
    Format/Info                 : Advanced Video Codec
    Format profile              : [email protected]
    Format settings             : CABAC / 4 Ref Frames
    Format settings, CABAC      : Yes
    Format settings, ReFrames   : 4 frames
    Format settings, GOP        : M=6, N=32
    Codec ID                    : V_MPEG4/ISO/AVC
    Duration                    : 43 min 24 s
    Bit rate                    : 8 931 kb/s
    Width                       : 1 280 pixels
    Height                      : 720 pixels
    Display aspect ratio        : 16:9
    Frame rate mode             : Constant
    Frame rate                  : 50.000 FPS
    Standard                    : Component
    Color space                 : YUV
    Chroma subsampling          : 4:2:0
    Bit depth                   : 8 bits
    Scan type                   : Progressive
    Bits/(Pixel*Frame)          : 0.194
    Stream size                 : 2.71 GiB (96%)
    Default                     : Yes
    Forced                      : No
    Color range                 : Limited
    Color primaries             : BT.709
    Transfer characteristics    : BT.709
    Matrix coefficients         : BT.709
    
    Audio
    ID                          : 2
    Format                      : AC-3
    Format/Info                 : Audio Coding 3
    Codec ID                    : A_AC3
    Duration                    : 43 min 24 s
    Bit rate mode               : Constant
    Bit rate                    : 384 kb/s
    Channel(s)                  : 2 channels
    Channel positions           : Front: L R
    Sampling rate               : 48.0 kHz
    Frame rate                  : 31.250 FPS (1536 SPF)
    Bit depth                   : 16 bits
    Compression mode            : Lossy
    Stream size                 : 119 MiB (4%)
    Service kind                : Complete Main
    Default                     : Yes
    Forced                      : No


    Dauer: 90 Min | Format: mkv | Größe: 5,74 GB

    Download Share-online.biz:

    # Mirror 1 Uploaded.net:

    Passwort:
    kein Passwort notwendig

  2. #Free Download
    Power Free Uploader
    Registriert seit
    16.07.2014
    Beiträge
    2417
     

Berechtigungen

  • Neue Themen erstellen: Nein
  • Themen beantworten: Nein
  • Anhänge hochladen: Nein
  • Beiträge bearbeiten: Nein
  •