Ergebnis 1 bis 1 von 1

Thema: Die Odyssee der einsamen Wölfe 2016 German AC3 720p HDTV x264 - iND

  1. #1
    MyBoerse.bz Pro Member
    Registriert seit
    28.09.14
    Beiträge
    1.439
    Bedankt
    0
    Danke erhalten: 598

    Die Odyssee der einsamen Wölfe 2016 German AC3 720p HDTV x264 - iND



    Die Odyssee der einsamen Wölfe 2016 German AC3 720p HDTV x264 - iND

    Der Zweiteiler "Die Odyssee der einsamen Wölfe" betrachtet das aktuelle Thema der Rückkehr eines Raubtiers aus der Perspektive der europäischen Wolfsforschung. Bis heute ist es für die Wissenschaft ein Rätsel, warum einzelne junge Wölfe auf der Suche nach einem neuen Territorium unglaubliche Distanzen von mehr als 1000 Kilometern zurücklegen. Die Geschichte dreier solcher Wanderwölfe bringt Licht in ihren spannenden Alltag: Sie ziehen quer durch Europa, überwinden reißende Flüsse, klettern Felswände empor, queren frostklirrende Bergmassive. Sie bewältigen Barrieren der Zivilisation, Autobahnen, Grenzsicherungen und Großstädte. Unverzichtbar für das Projekt: Die drei Helden tragen Sender. Wissenschaler entwickelten so detailreiche GPS-Karten. Es sind Dokumente, die die Routen der Wölfe exakt nachvollziehen lassen und beweisen, dass es einzelnen Tieren auf diese Weise gelingt, in den versprengten Wolfspopulationen Europas für genetische Vielfalt zu sorgen.

    Kurzinfo:
    Video: 9 707 kb/s, x264 High L4, 50.000 FPS
    Auflösung: 1280x720, 16:9
    Audio: German AC3 5.1 484 kb/s

    Media-Info:
    Code:
    General
    Unique ID                   : 221559544619990930028918039513286947819 (0xA6AED0EEDE55F6F95DD50C336D6DB3EB)
    Complete name               : Die Odyssee der einsamen Wölfe - Teil 1.mkv
    Format                      : Matroska
    Format version              : Version 4 / Version 2
    File size                   : 3.05 GiB
    Duration                    : 42 min 56 s
    Overall bit rate            : 10.2 Mb/s
    Encoded date                : UTC 2018-10-13 03:15:23
    Writing application         : mkvmerge v21.0.0 ('Tardigrades Will Inherit The Earth') 64-bit
    Writing library             : libebml v1.3.5 + libmatroska v1.4.8
    
    Video
    ID                          : 1
    Format                      : AVC
    Format/Info                 : Advanced Video Codec
    Format profile              : [email protected]
    Format settings             : CABAC / 4 Ref Frames
    Format settings, CABAC      : Yes
    Format settings, ReFrames   : 4 frames
    Codec ID                    : V_MPEG4/ISO/AVC
    Duration                    : 42 min 56 s
    Bit rate                    : 9 707 kb/s
    Width                       : 1 280 pixels
    Height                      : 720 pixels
    Display aspect ratio        : 16:9
    Frame rate mode             : Constant
    Frame rate                  : 50.000 FPS
    Standard                    : Component
    Color space                 : YUV
    Chroma subsampling          : 4:2:0
    Bit depth                   : 8 bits
    Scan type                   : Progressive
    Bits/(Pixel*Frame)          : 0.211
    Stream size                 : 2.91 GiB (96%)
    Default                     : Yes
    Forced                      : No
    Color range                 : Limited
    Color primaries             : BT.709
    Transfer characteristics    : BT.709
    Matrix coefficients         : BT.709
    
    Audio
    ID                          : 2
    Format                      : AC-3
    Format/Info                 : Audio Coding 3
    Codec ID                    : A_AC3
    Duration                    : 42 min 56 s
    Bit rate mode               : Constant
    Bit rate                    : 448 kb/s
    Channel(s)                  : 6 channels
    Channel positions           : Front: L C R, Side: L R, LFE
    Sampling rate               : 48.0 kHz
    Frame rate                  : 31.250 FPS (1536 SPF)
    Bit depth                   : 16 bits
    Compression mode            : Lossy
    Stream size                 : 138 MiB (4%)
    Service kind                : Complete Main
    Default                     : Yes
    Forced                      : No


    Dauer: 90 Min | Format: mkv | Größe: 5,86 GB

    Download Share-online.biz:

    # Mirror 1 Uploaded.net:

    Passwort:
    kein Passwort notwendig

  2. #Free Download
    Power Free Uploader
    Registriert seit
    16.07.2014
    Beiträge
    2417
     

Berechtigungen

  • Neue Themen erstellen: Nein
  • Themen beantworten: Nein
  • Anhänge hochladen: Nein
  • Beiträge bearbeiten: Nein
  •