Ergebnis 1 bis 1 von 1

Thema: Giraffen Die großen Unbekannten 2015 German AC3 720p HDTV x264 - iND

  1. #1
    MyBoerse.bz Pro Member
    Registriert seit
    28.09.14
    Beiträge
    1.439
    Bedankt
    0
    Danke erhalten: 598

    Giraffen Die großen Unbekannten 2015 German AC3 720p HDTV x264 - iND



    Giraffen Die großen Unbekannten 2015 German AC3 720p HDTV x264 - iND

    Das Verhalten von Giraffen ist komplex und birgt noch zahlreiche Rätsel. Die Dokumentation begleitet mehrere internationale Teams aus Nordkenia, von kanadischen und amerikanischen Universitäten sowie aus amerikanischen Zoos, die das Verhalten und die biologischen Eigenschaften der eleganten Riesen erforschen. Sie arbeiten unter anderem mit Ultraschall, Wärmebildern und biometrischen Daten. Die Wissenschaftler wollen herausfinden, wie man eine der am stärksten bedrohten Säugetierarten vor dem Aussterben retten kann.

    Kurzinfo:
    Video: 7 061 kb/s, x264 High L4, 50.000 FPS
    Auflösung: 1280x720, 16:9
    Audio: German AC3 5.1 484 kb/s

    Media-Info:
    Code:
    Unique ID                   : 15250526191816422009104598042203096688 (0xB7924FE592EB34CBB0D6FC123FB8670)
    Complete name               : Giraffen - Die großen Unbekannten.mkv
    Format                      : Matroska
    Format version              : Version 4 / Version 2
    File size                   : 2.30 GiB
    Duration                    : 43 min 2 s
    Overall bit rate            : 7 662 kb/s
    Encoded date                : UTC 2018-08-29 08:10:10
    Writing application         : TMPGEnc MPEG Smart Renderer
    Writing library             : TMPGEnc MPEG Smart Renderer
    Video
    ID                          : 1
    Format                      : AVC
    Format/Info                 : Advanced Video Codec
    Format profile              : [email protected]
    Format settings             : CABAC / 4 Ref Frames
    Format settings, CABAC      : Yes
    Format settings, ReFrames   : 4 frames
    Codec ID                    : V_MPEG4/ISO/AVC
    Duration                    : 43 min 2 s
    Bit rate                    : 7 061 kb/s
    Width                       : 1 280 pixels
    Height                      : 720 pixels
    Display aspect ratio        : 16:9
    Frame rate mode             : Constant
    Frame rate                  : 50.000 FPS
    Standard                    : Component
    Color space                 : YUV
    Chroma subsampling          : 4:2:0
    Bit depth                   : 8 bits
    Scan type                   : Progressive
    Bits/(Pixel*Frame)          : 0.153
    Stream size                 : 2.12 GiB (92%)
    Default                     : Yes
    Forced                      : No
    Color range                 : Limited
    Color primaries             : BT.709
    Transfer characteristics    : BT.709
    Matrix coefficients         : BT.709
    
    Audio
    ID                          : 2
    Format                      : AC-3
    Format/Info                 : Audio Coding 3
    Codec ID                    : A_AC3
    Duration                    : 43 min 2 s
    Bit rate mode               : Constant
    Bit rate                    : 448 kb/s
    Channel(s)                  : 6 channels
    Channel positions           : Front: L C R, Side: L R, LFE
    Sampling rate               : 48.0 kHz
    Frame rate                  : 31.250 FPS (1536 SPF)
    Bit depth                   : 16 bits
    Compression mode            : Lossy
    Stream size                 : 138 MiB (6%)
    Service kind                : Complete Main
    Default                     : Yes
    Forced                      : No
    
    Menu


    Dauer: 45 Min | Format: mkv | Größe: 2,34 GB

    Download Share-online.biz:

    # Mirror 1 Uploaded.net:

    Passwort:
    kein Passwort notwendig

  2. Folgende Benutzer haben sich bei flossZ für diesen Beitrag bedankt:

    flabberx98 (16.10.18)

  3. #Free Download
    Power Free Uploader
    Registriert seit
    16.07.2014
    Beiträge
    2417
     

Berechtigungen

  • Neue Themen erstellen: Nein
  • Themen beantworten: Nein
  • Anhänge hochladen: Nein
  • Beiträge bearbeiten: Nein
  •