Ergebnis 1 bis 1 von 1

Thema: Hitler und Stalin Portrait einer Feindschaft 2009 German AC3 720p HDTV x264 - iND

  1. #1
    MyBoerse.bz Pro Member
    Registriert seit
    28.09.14
    Beiträge
    1.442
    Bedankt
    0
    Danke erhalten: 598

    Hitler und Stalin Portrait einer Feindschaft 2009 German AC3 720p HDTV x264 - iND



    Hitler und Stalin Portrait einer Feindschaft 2009 German AC3 720p HDTV x264 - iND

    Sie begegneten einander nie und blieben doch dauerhaft aufeinander fixiert: Hitler und Stalin. Sie stiegen auf zu Führern von Diktaturen, die an blutiger Gewalt alles übertrafen, was menschlicher Wille zur Macht bis dahin an Grausamkeit hervorgebracht hatte. Scheinbar gesichertes Wissen liefert neue Einsichten in alte Fragestellungen: Wie werden Menschen zu Diktatoren? Was machte die Ähnlichkeit und was den Unterschied beider Herrscher und Systeme aus? Wie vereinbarte sich der brutale Terror und jener fanatische Glaube, der Millionen Menschen ans jeweilige System band? Warum hatte Moskau noch Angst vor dem toten Hitler? Wer weinte an Stalins Grab? Der Film bleibt dicht an den Protagonisten, geht ihrem Programm und ihrer Paranoia nach und blickt erhellend auf Phänomene, die das 20. Jahrhundert erschütterten, total veränderten und bis in unser 21. Jahrhundert nachwirken.

    Kurzinfo:
    Video: 12.3 Mb/s, x264 High L4, 50.000 FPS
    Auflösung: 1280x720, 16:9
    Audio: German AC3 5.1 448 kb/s

    Media-Info:
    Code:
    General
    Unique ID                   : 219671145865242413850971933211807415375 (0xA5431FAFA6ACB6633DB172D797577C4F)
    Complete name               : Hitler und Stalin Porträt einer Feindschaft 2009.mkv
    Format                      : Matroska
    Format version              : Version 4 / Version 2
    File size                   : 7.64 GiB
    Duration                    : 1 h 28 min
    Overall bit rate            : 12.3 Mb/s
    Encoded date                : UTC 2018-10-13 03:28:19
    Writing application         : mkvmerge v21.0.0 ('Tardigrades Will Inherit The Earth') 64-bit
    Writing library             : libebml v1.3.5 + libmatroska v1.4.8
    
    Video
    ID                          : 1
    Format                      : AVC
    Format/Info                 : Advanced Video Codec
    Format profile              : [email protected]
    Format settings             : CABAC / 4 Ref Frames
    Format settings, CABAC      : Yes
    Format settings, ReFrames   : 4 frames
    Codec ID                    : V_MPEG4/ISO/AVC
    Duration                    : 1 h 28 min
    Bit rate                    : 11.8 Mb/s
    Width                       : 1 280 pixels
    Height                      : 720 pixels
    Display aspect ratio        : 16:9
    Frame rate mode             : Constant
    Frame rate                  : 50.000 FPS
    Standard                    : Component
    Color space                 : YUV
    Chroma subsampling          : 4:2:0
    Bit depth                   : 8 bits
    Scan type                   : Progressive
    Bits/(Pixel*Frame)          : 0.257
    Stream size                 : 7.36 GiB (96%)
    Default                     : Yes
    Forced                      : No
    Color range                 : Limited
    Color primaries             : BT.709
    Transfer characteristics    : BT.709
    Matrix coefficients         : BT.709
    
    Audio
    ID                          : 2
    Format                      : AC-3
    Format/Info                 : Audio Coding 3
    Codec ID                    : A_AC3
    Duration                    : 1 h 28 min
    Bit rate mode               : Constant
    Bit rate                    : 448 kb/s
    Channel(s)                  : 6 channels
    Channel positions           : Front: L C R, Side: L R, LFE
    Sampling rate               : 48.0 kHz
    Frame rate                  : 31.250 FPS (1536 SPF)
    Bit depth                   : 16 bits
    Compression mode            : Lossy
    Stream size                 : 285 MiB (4%)
    Service kind                : Complete Main
    Default                     : No
    Forced                      : No


    Dauer: 90 Min | Format: mkv | Größe: 7,83 GB

    Download Share-online.biz:

    # Mirror 1 Uploaded.net:

    Passwort:
    kein Passwort notwendig

  2. #Free Download
     

Berechtigungen

  • Neue Themen erstellen: Nein
  • Themen beantworten: Nein
  • Anhänge hochladen: Nein
  • Beiträge bearbeiten: Nein
  •