Ergebnis 1 bis 1 von 1

Thema: Wo die Wale zur Welt kommen 2015 German AC3 720p HDTV x264 - iND

  1. #1
    MyBoerse.bz Pro Member
    Registriert seit
    28.09.14
    Beiträge
    1.439
    Bedankt
    0
    Danke erhalten: 597

    Wo die Wale zur Welt kommen 2015 German AC3 720p HDTV x264 - iND



    Wo die Wale zur Welt kommen 2015 German AC3 720p HDTV x264 - iND

    Eine einzigartige wissenschaftliche Abenteuerreise ins nordwestaustralische Kimberley, wo sich das größte Fortpflanzungsgebiet von Buckelwalen befindet. Die Forscher Curt und Micheline Jenner konnten mit Hilfe von Quadrokoptern und Nachtkameras bisher nie gefilmte Szenen festhalten. Dem Zuschauer eröffnen sich spannende Einblicke in das Sozialverhalten der großen Meeressäuger.

    Kurzinfo:
    Video: 10.1 Mb/s, x264 High L4, 50.000 FPS
    Auflösung: 1280x720, 16:9
    Audio: German AC3 5.1 484 kb/s

    Media-Info:
    Code:
    General
    Unique ID                   : 42424346700793587048060338699802388237 (0x1FEAA1C8AB347541B6D1F68BC48E270D)
    Complete name               : A:\Dreambox\NEU\Wo die Wale zur Welt kommen
    emmok.tleW.ruz.elaW.eid.oW\Wo die Wale zur Welt kommen.mkv
    Format                      : Matroska
    Format version              : Version 4 / Version 2
    File size                   : 3.03 GiB
    Duration                    : 42 min 57 s
    Overall bit rate            : 10.1 Mb/s
    Encoded date                : UTC 2018-08-30 10:24:22
    Writing application         : TMPGEnc MPEG Smart Renderer 5 Version 5.0.12.17
    Writing library             : TMPGEnc MPEG Smart Renderer 5 Version 5.0.12.17
    
    Video
    ID                          : 1
    Format                      : AVC
    Format/Info                 : Advanced Video Codec
    Format profile              : [email protected]
    Format settings             : CABAC / 4 Ref Frames
    Format settings, CABAC      : Yes
    Format settings, ReFrames   : 4 frames
    Codec ID                    : V_MPEG4/ISO/AVC
    Duration                    : 42 min 57 s
    Bit rate                    : 9 440 kb/s
    Width                       : 1 280 pixels
    Height                      : 720 pixels
    Display aspect ratio        : 16:9
    Frame rate mode             : Constant
    Frame rate                  : 50.000 FPS
    Standard                    : Component
    Color space                 : YUV
    Chroma subsampling          : 4:2:0
    Bit depth                   : 8 bits
    Scan type                   : Progressive
    Bits/(Pixel*Frame)          : 0.205
    Stream size                 : 2.83 GiB (94%)
    Default                     : Yes
    Forced                      : No
    Color range                 : Limited
    Color primaries             : BT.709
    Transfer characteristics    : BT.709
    Matrix coefficients         : BT.709
    
    Audio
    ID                          : 2
    Format                      : AC-3
    Format/Info                 : Audio Coding 3
    Codec ID                    : A_AC3
    Duration                    : 42 min 57 s
    Bit rate mode               : Constant
    Bit rate                    : 448 kb/s
    Channel(s)                  : 6 channels
    Channel positions           : Front: L C R, Side: L R, LFE
    Sampling rate               : 48.0 kHz
    Frame rate                  : 31.250 FPS (1536 SPF)
    Bit depth                   : 16 bits
    Compression mode            : Lossy
    Stream size                 : 138 MiB (4%)
    Service kind                : Complete Main
    Default                     : Yes
    Forced                      : No
    
    Menu


    Dauer: 45 Min | Format: mkv | Größe: 3,06 GB

    Download Share-online.biz:

    # Mirror 1 Uploaded.net:

    Passwort:
    kein Passwort notwendig

  2. #Free Download
    Power Free Uploader
    Registriert seit
    16.07.2014
    Beiträge
    2417
     

Berechtigungen

  • Neue Themen erstellen: Nein
  • Themen beantworten: Nein
  • Anhänge hochladen: Nein
  • Beiträge bearbeiten: Nein
  •