Ergebnis 1 bis 5 von 5

Thema: Der gefährlichste Job Alaskas Staffel 14 AC3 Deutsch HDTV 720p - uploader2013

  1. #1
    MyBoerse.bz Pro Member Avatar von uploader2013
    Registriert seit
    22.08.14
    Beiträge
    723
    Bedankt
    1
    Danke erhalten: 469

    Der gefährlichste Job Alaskas Staffel 14 AC3 Deutsch HDTV 720p - uploader2013

    Der gefährlichste Job Alaskas Staffel 14 AC3 Deutsch HDTV 720p - uploader2013



    Inhalt:

    Sie trotzen den heftigsten Naturgewalten und riskieren Jahr für Jahr bei eisigen Stürmen vor der Küste Alaskas ihr Leben: die Krabbenfischer in der Beringsee. Ihr Job gehört zu den
    gefährlichsten der Welt. Weder arktische Temperaturen noch Monsterwellen oder Orkanstürme halten die rauen Burschen bei ihrer Jagd nach der begehrten Beute auf. Die hartgesottenen
    Seeleute scheinen wie geboren für eines der letzten Abenteuer unserer Zeit. Und die Aussicht, innerhalb weniger Wochen Tausende von Dollar zu verdienen, setzt zusätzliche Kräfte frei.
    Nach einer erfolgreichen Fangsaison im nördlichsten Randmeer des Pazifik winkt ihnen ein kleines Vermögen


    Media Info
    Code:
    General
    Unique ID                   : 185187949301094350067428205921113812863 (0x8B51E6D5259E41FD85EC1FAA8EA12F7F)
    Complete name               : Fang Des Lebens - S14E01 Der Gefährlichste Job Alaskas-Neue Strategien, neue Allianzen.mkv
    Format                      : Matroska
    Format version              : Version 4 / Version 2
    File size                   : 1.46 GiB
    Duration                    : 1 h 28 min
    Overall bit rate            : 2 359 kb/s
    Encoded date                : UTC 2018-06-16 06:47:07
    Writing application         : mkvmerge v6.0.0 ('Coming Up For Air') built on Jan 20 2013 09:52:00
    Writing library             : libebml v1.3.0 + libmatroska v1.4.0 / Lavf55.12.0
    
    Video
    ID                          : 1
    Format                      : AVC
    Format/Info                 : Advanced Video Codec
    Format profile              : [email protected]
    Format settings, CABAC      : Yes
    Format settings, ReFrames   : 4 frames
    Codec ID                    : V_MPEG4/ISO/AVC
    Duration                    : 1 h 28 min
    Bit rate                    : 1 544 kb/s
    Width                       : 1 280 pixels
    Height                      : 720 pixels
    Display aspect ratio        : 16:9
    Frame rate mode             : Constant
    Frame rate                  : 25.000 FPS
    Color space                 : YUV
    Chroma subsampling          : 4:2:0
    Bit depth                   : 8 bits
    Scan type                   : Progressive
    Bits/(Pixel*Frame)          : 0.067
    Stream size                 : 977 MiB (65%)
    Default                     : Yes
    Forced                      : No
    Color range                 : Limited
    Color primaries             : BT.709
    Transfer characteristics    : BT.709
    Matrix coefficients         : BT.709
    
    Audio #1
    ID                          : 2
    Format                      : AC-3
    Format/Info                 : Audio Coding 3
    Format settings, Endianness : Big
    Codec ID                    : A_AC3
    Duration                    : 1 h 28 min
    Bit rate mode               : Constant
    Bit rate                    : 384 kb/s
    Channel(s)                  : 2 channels
    Channel positions           : Front: L R
    Sampling rate               : 48.0 kHz
    Frame rate                  : 31.250 FPS (1536 spf)
    Bit depth                   : 16 bits
    Compression mode            : Lossy
    Delay relative to video     : 3 ms
    Stream size                 : 243 MiB (16%)
    Title                       : Stereo
    Language                    : German
    Service kind                : Complete Main
    Default                     : Yes
    Forced                      : No
    
    Audio #2
    ID                          : 3
    Format                      : AC-3
    Format/Info                 : Audio Coding 3
    Format settings, Endianness : Big
    Codec ID                    : A_AC3
    Duration                    : 1 h 28 min
    Bit rate mode               : Constant
    Bit rate                    : 384 kb/s
    Channel(s)                  : 2 channels
    Channel positions           : Front: L R
    Sampling rate               : 48.0 kHz
    Frame rate                  : 31.250 FPS (1536 spf)
    Bit depth                   : 16 bits
    Compression mode            : Lossy
    Delay relative to video     : 3 ms
    Stream size                 : 243 MiB (16%)
    Title                       : Stereo
    Language                    : English
    Service kind                : Complete Main
    Default                     : No
    Forced                      : No

    -------------------------------------------------------
    Passwort : uploader2013
    Hoster : Uploaded.net/Share-Online

    --------------------------------------------------------

    Folgen:
    Folge 01 - Neue Strategien, neue Allianzen
    Folge 02 - Freund oder Feind?
    Folge 03 - Das Grosse Misstrauen
    Folge 04 - Das Diesel-Desaster
    Folge 05 - Angeschlagen
    Folge 06 - Kampf mit dem Hurrikan
    Folge 07 - Volles Boot, leere Batterie
    Folge 08 - Das Logbuch des Vaters
    Folge 09 - Von Bruder zu Bruder
    Folge 10 - Verfluchter Winter
    Folge 11 - Skipper verzweifelt gesucht Neue Folge

    Alle Folgen einzeln Ladbar!

    !!!!!!Download!!!!!!

    Der gefährlichste Job Alaskas Staffel 14 AC3 Deutsch HDTV 720p - uploader2013

    Geändert von uploader2013 (12.10.18 um 12:03 Uhr)

  2. Die folgenden 3 Benutzer haben sich bei uploader2013 für diesen Beitrag bedankt:

    brasil (28.09.18), papakosmas (28.09.18), Svenni (15.10.18)

  3. #Free Download
     

  4. #2
    MyBoerse.bz Pro Member Avatar von uploader2013
    Registriert seit
    22.08.14
    Beiträge
    723
    Bedankt
    1
    Danke erhalten: 469
    Hallo zusammen! Nicht wundern das ich im moment keine neue Folge von Fang des Lebens Hochlade, aber es ist im moment pause es geht am 27.9
    wieder mit einer neuen Folge weiter.

    LG

  5. #3
    MyBoerse.bz Pro Member Avatar von uploader2013
    Registriert seit
    22.08.14
    Beiträge
    723
    Bedankt
    1
    Danke erhalten: 469
    Hallo,
    endlich geht es weiter mit der Staffel 14! Viel Spaß!!

    Neue Folge Hinzugefügt!!

    Folge 09 - Von Bruder zu Bruder Neue Folge

  6. #4
    MyBoerse.bz Pro Member Avatar von uploader2013
    Registriert seit
    22.08.14
    Beiträge
    723
    Bedankt
    1
    Danke erhalten: 469
    Neue Folge Hinzugefügt!!

    Folge 10 - Verfluchter Winter Neue Folge

  7. #5
    MyBoerse.bz Pro Member Avatar von uploader2013
    Registriert seit
    22.08.14
    Beiträge
    723
    Bedankt
    1
    Danke erhalten: 469
    Neue Folge Hinzugefügt!!

    Folge 11 - Skipper verzweifelt gesucht Neue Folge

Berechtigungen

  • Neue Themen erstellen: Nein
  • Themen beantworten: Nein
  • Anhänge hochladen: Nein
  • Beiträge bearbeiten: Nein
  •