Ergebnis 1 bis 1 von 1

Thema: The Bomb 2015 German AC3 720p HDTV x264 - iND

  1. #1
    MyBoerse.bz Pro Member
    Registriert seit
    28.09.14
    Beiträge
    1.402
    Bedankt
    0
    Danke erhalten: 562

    The Bomb 2015 German AC3 720p HDTV x264 - iND



    The Bomb 2015 German AC3 720p HDTV x264 - iND

    „The Bomb“ erzählt die Geschichte der zerstörerischsten Waffe, die je erfunden wurde. Der Dokumentarfilm schildert, wie die Menschheit gelernt hat, die gewaltige Sprengkraft der Atombombe zu beherrschen, und was es für die Welt bis in unsere Gegenwart hinein bedeutet, mit dieser Erfindung zu leben. Anhand von kürzlich restaurierten, zum Teil gerade erst veröffentlichten historischen Originalaufnahmen deckt „The Bomb“ die Hintergründe der Atombombenabwürfe über Hiroshima und Nagasaki auf. Der Dokumentarfilm zeigt, unter welchen Bedingungen diese neue Massenvernichtungswaffen mit bis dahin unvorstellbarer Sprengkraft entwickelt wurde, wie deren Einsatz die Welt verändert und den Beginn eines neuen Zeitalters eingeläutet hat. Seit 1945 leben die modernen Gesellschaften mit einer Erfindung, die den ganzen Planeten zerstören könnte.

    Kurzinfo:
    Video: 7 000 kb/s, High L4.1, 50.000 FPS
    Auflösung: 1280x720, 16:9
    Audio: Deutsch AC3 5.1 448 kb/s

    Media-Info:
    Code:
    General
    Unique ID                   : 50094812784546866966208785564593516679 (0x25AFE8F5C2F2B82A6955F1C9026B7087)
    Complete name               : The Bomb.mkv
    Format                      : Matroska
    Format version              : Version 4 / Version 2
    File size                   : 5.18 GiB
    Duration                    : 1 h 36 min
    Overall bit rate            : 7 660 kb/s
    Encoded date                : UTC 2018-08-09 10:23:32
    Writing application         : mkvmerge v21.0.0 ('Tardigrades Will Inherit The Earth') 64-bit
    Writing library             : libebml v1.3.5 + libmatroska v1.4.8
    
    Video
    ID                          : 1
    Format                      : AVC
    Format/Info                 : Advanced Video Codec
    Format profile              : [email protected]
    Format settings             : CABAC / 4 Ref Frames
    Format settings, CABAC      : Yes
    Format settings, ReFrames   : 4 frames
    Codec ID                    : V_MPEG4/ISO/AVC
    Duration                    : 1 h 36 min
    Bit rate                    : 7 208 kb/s
    Width                       : 1 280 pixels
    Height                      : 720 pixels
    Display aspect ratio        : 16:9
    Frame rate mode             : Constant
    Frame rate                  : 50.000 FPS
    Standard                    : Component
    Color space                 : YUV
    Chroma subsampling          : 4:2:0
    Bit depth                   : 8 bits
    Scan type                   : Progressive
    Bits/(Pixel*Frame)          : 0.156
    Stream size                 : 4.88 GiB (94%)
    Default                     : Yes
    Forced                      : No
    Color range                 : Limited
    Color primaries             : BT.709
    Transfer characteristics    : BT.709
    Matrix coefficients         : BT.709
    
    Audio
    ID                          : 2
    Format                      : AC-3
    Format/Info                 : Audio Coding 3
    Codec ID                    : A_AC3
    Duration                    : 1 h 36 min
    Bit rate mode               : Constant
    Bit rate                    : 448 kb/s
    Channel(s)                  : 6 channels
    Channel positions           : Front: L C R, Side: L R, LFE
    Sampling rate               : 48.0 kHz
    Frame rate                  : 31.250 FPS (1536 SPF)
    Bit depth                   : 16 bits
    Compression mode            : Lossy
    Stream size                 : 310 MiB (6%)
    Service kind                : Complete Main
    Default                     : No
    Forced                      : No


    Dauer: 97 Min | Format: mkv | Größe: 5,31 GB

    Download Share-online.biz:

    # Mirror 1 Uploaded.net:

    Passwort:
    kein Passwort notwendig

  2. #Free Download
    Power Free Uploader
    Registriert seit
    16.07.2014
    Beiträge
    2417
     

Berechtigungen

  • Neue Themen erstellen: Nein
  • Themen beantworten: Nein
  • Anhänge hochladen: Nein
  • Beiträge bearbeiten: Nein
  •