Ergebnis 1 bis 1 von 1

Thema: Inside Hiroshima 2015 English AC3 720p HDTV x264 - iND

  1. #1
    MyBoerse.bz Pro Member
    Registriert seit
    28.09.14
    Beiträge
    1.408
    Bedankt
    0
    Danke erhalten: 568

    Inside Hiroshima 2015 English AC3 720p HDTV x264 - iND



    Inside Hiroshima 2015 English AC3 720p HDTV x264 - iND

    Wer diese Dokumentation sieht, wird die Stimme der englischen Kommentatorin nicht mehr vergessen. Eindringlich und gleichzeitig voller Ruhe erzählt sie die unglaubliche Geschichte um 5 Fotos, die kurz nach dem Abwurf der Atombombe auf Hiroshima verbotenerweise aufgenommen wurden. Die Bilder halten den Schicksalsmoment fest, der die Welt für immer verändert: den ersten Einsatz von Atomwaffen gegen Menschen. Am 6. August 1945 um 8:15 Uhr erhellt ein Lichtblitz den Himmel von Hiroshima. Eine gigantische Rauchsäule erhebt sich über der Stadt. Die erste Atombombe in der Geschichte wurde gerade auf die größte Metropole in Westjapan abgeworfen. Diese Dokumentation zeigt die Tragödie von innen, basierend auf bisher unveröffentlichtem Material und Fotos, die an diesem Tag aufgenommen wurden. Der Film rekonstruiert das Ereignis anhand von persönlichen Geschichten.

    Kurzinfo:
    Video: 7 000 kb/s, High L4.1, 50.000 FPS
    Auflösung: 1280x720, 16:9
    Audio: English AC3 2.0 384 kb/s

    Media-Info:
    Code:
    General
    Unique ID                   : 101614525139433865233329472660463567090 (0x4C723EE48FC1EF3E8DED3C6CB7C640F2)
    Complete name               : Inside Hiroshima.mkv
    Format                      : Matroska
    Format version              : Version 4 / Version 2
    File size                   : 2.70 GiB
    Duration                    : 52 min 0 s
    Overall bit rate            : 7 442 kb/s
    Encoded date                : UTC 2018-08-09T07:21:39Z
    Writing application         : HandBrake 1.1.1 2018061800
    Writing library             : Lavf57.7.2
    
    Video
    ID                          : 1
    Format                      : AVC
    Format/Info                 : Advanced Video Codec
    Format profile              : [email protected]
    Format settings             : CABAC / 4 Ref Frames
    Format settings, CABAC      : Yes
    Format settings, ReFrames   : 4 frames
    Codec ID                    : V_MPEG4/ISO/AVC
    Duration                    : 52 min 0 s
    Bit rate                    : 7 000 kb/s
    Width                       : 1 280 pixels
    Height                      : 718 pixels
    Display aspect ratio        : 16:9
    Frame rate mode             : Constant
    Frame rate                  : 50.000 FPS
    Color space                 : YUV
    Chroma subsampling          : 4:2:0
    Bit depth                   : 8 bits
    Scan type                   : Progressive
    Bits/(Pixel*Frame)          : 0.152
    Stream size                 : 2.51 GiB (93%)
    Writing library             : x264 core 155 r2901 7d0ff22
    Encoding settings           : cabac=1 / ref=3 / deblock=1:0:0 / analyse=0x3:0x113 / me=hex / subme=7 / psy=1 / psy_rd=1.00:0.00 / mixed_ref=1 / me_range=16 / chroma_me=1 / trellis=1 / 8x8dct=1 / cqm=0 / deadzone=21,11 / fast_pskip=1 / chroma_qp_offset=-2 / threads=18 / lookahead_threads=3 / sliced_threads=0 / nr=0 / decimate=1 / interlaced=0 / bluray_compat=0 / constrained_intra=0 / bframes=3 / b_pyramid=2 / b_adapt=1 / b_bias=0 / direct=1 / weightb=1 / open_gop=0 / weightp=2 / keyint=500 / keyint_min=50 / scenecut=40 / intra_refresh=0 / rc_lookahead=40 / rc=abr / mbtree=1 / bitrate=7000 / ratetol=1.0 / qcomp=0.60 / qpmin=0 / qpmax=69 / qpstep=4 / vbv_maxrate=62500 / vbv_bufsize=78125 / nal_hrd=none / filler=0 / ip_ratio=1.40 / aq=1:1.00
    Default                     : Yes
    Forced                      : No
    Color range                 : Limited
    Color primaries             : BT.709
    Transfer characteristics    : BT.709
    Matrix coefficients         : BT.709
    
    Audio
    ID                          : 2
    Format                      : AC-3
    Format/Info                 : Audio Coding 3
    Codec ID                    : A_AC3
    Duration                    : 52 min 0 s
    Bit rate mode               : Constant
    Bit rate                    : 384 kb/s
    Channel(s)                  : 2 channels
    Channel positions           : Front: L R
    Sampling rate               : 48.0 kHz
    Frame rate                  : 31.250 FPS (1536 SPF)
    Bit depth                   : 16 bits
    Compression mode            : Lossy
    Stream size                 : 143 MiB (5%)
    Title                       : Stereo
    Service kind                : Complete Main
    Default                     : Yes
    Forced                      : No


    Dauer: 55 Min | Format: mkv | Größe: 2,79 GB

    Download Share-online.biz:

    # Mirror 1 Uploaded.net:

    Passwort:
    kein Passwort notwendig

  2. #Free Download
    Power Free Uploader
    Registriert seit
    16.07.2014
    Beiträge
    2417
     

Berechtigungen

  • Neue Themen erstellen: Nein
  • Themen beantworten: Nein
  • Anhänge hochladen: Nein
  • Beiträge bearbeiten: Nein
  •