Ergebnis 1 bis 1 von 1

Thema: Afrikas wilde Bienen 2016 German 720p HDTV x264 - iND

  1. #1
    MyBoerse.bz Pro Member
    Registriert seit
    28.09.14
    Beiträge
    1.479
    Bedankt
    0
    Danke erhalten: 608

    Afrikas wilde Bienen 2016 German 720p HDTV x264 - iND



    Afrikas wilde Bienen 2016 German 720p HDTV x264 - iND

    chauplatz Kenia: Ein Kampf David gegen Goliath. Eine winzige Königin und ihr Heer im Widerstreit mit Feinden, die millionenfach größer sind als sie selbst: Die Dokumentation "Afrikas wilde Bienen - Die wahren Herrscher der Savanne" zeigt den Überlebenskampf der afrikanischen Honigbienen, deren Gegner kaum übermächtiger sein könnten: einerseits Elefanten, die größten Landsäugetiere der Welt, andererseits die Turkana, ein kenianischer Nomadenstamm, der es auf das Gold der Savanne, den Honig, abgesehen hat. Afrikanische Bienen sind eine deutlich aggressivere Unterart unserer Honigbiene. Sie reagieren sensibel auf kleinste Störungen des Bienenstocks, Angreifer verfolgen sie manchmal über eine Strecke von einem Kilometer...

    Kurzinfo:
    Video: 8 182 kb/s, High L4, 50.000 FPS
    Auflösung: 1280x720, 16:9
    Audio: Deutsch AC3 2.0 384 kb/s

    Media-Info:
    Code:
    General
    Unique ID                   : 5446006063331886542086069191906400003 (0x418DCD45E0A5F6BDBBAD31C00279703)
    Complete name               : Afrikas wilde Bienen.mkv
    Format                      : Matroska
    Format version              : Version 4 / Version 2
    File size                   : 2.50 GiB
    Duration                    : 43 min 44 s
    Overall bit rate            : 8 182 kb/s
    Encoded date                : UTC 2018-07-19 17:52:02
    Writing application         : mkvmerge v21.0.0 ('Tardigrades Will Inherit The Earth') 64-bit
    Writing library             : libebml v1.3.5 + libmatroska v1.4.8
    
    Video
    ID                          : 1
    Format                      : AVC
    Format/Info                 : Advanced Video Codec
    Format profile              : [email protected]
    Format settings             : CABAC / 4 Ref Frames
    Format settings, CABAC      : Yes
    Format settings, ReFrames   : 4 frames
    Codec ID                    : V_MPEG4/ISO/AVC
    Duration                    : 43 min 44 s
    Bit rate                    : 7 794 kb/s
    Width                       : 1 280 pixels
    Height                      : 720 pixels
    Display aspect ratio        : 16:9
    Frame rate mode             : Constant
    Frame rate                  : 50.000 FPS
    Standard                    : Component
    Color space                 : YUV
    Chroma subsampling          : 4:2:0
    Bit depth                   : 8 bits
    Scan type                   : Progressive
    Bits/(Pixel*Frame)          : 0.169
    Stream size                 : 2.38 GiB (95%)
    Default                     : Yes
    Forced                      : No
    Color range                 : Limited
    Color primaries             : BT.709
    Transfer characteristics    : BT.709
    Matrix coefficients         : BT.709
    
    Audio
    ID                          : 2
    Format                      : AC-3
    Format/Info                 : Audio Coding 3
    Codec ID                    : A_AC3
    Duration                    : 43 min 44 s
    Bit rate mode               : Constant
    Bit rate                    : 384 kb/s
    Channel(s)                  : 2 channels
    Channel positions           : Front: L R
    Sampling rate               : 48.0 kHz
    Frame rate                  : 31.250 FPS (1536 SPF)
    Bit depth                   : 16 bits
    Compression mode            : Lossy
    Stream size                 : 120 MiB (5%)
    Service kind                : Complete Main
    Default                     : Yes
    Forced                      : No


    Dauer: 45 Min | Format: mkv | Größe: 2,50 GB

    Download Share-online.biz:

    # Mirror 1 Uploaded.net:

    Passwort:
    kein Passwort notwendig

  2. #Free Download
    Power Free Uploader
    Registriert seit
    16.07.2014
    Beiträge
    2417
     

Berechtigungen

  • Neue Themen erstellen: Nein
  • Themen beantworten: Nein
  • Anhänge hochladen: Nein
  • Beiträge bearbeiten: Nein
  •