Ergebnis 1 bis 1 von 1

Thema: Hummeln Bienen im Pelz 2013 German AC3 720p HDTV x264 - iND

  1. #1
    MyBoerse.bz Pro Member
    Registriert seit
    28.09.14
    Beiträge
    1.479
    Bedankt
    0
    Danke erhalten: 608

    Hummeln Bienen im Pelz 2013 German AC3 720p HDTV x264 - iND



    Hummeln Bienen im Pelz 2013 German AC3 720p HDTV x264 - iND

    Hummeln, gern als gutmütig und freundlich bezeichnet, zählen wohl zu den beliebtesten Fluginsekten aus der Bienenfamilie. Kaum jemand weiß, dass es in Österreich mehr als 30 Arten von Hummeln gibt, am häufigsten die Erd- und die Baumhummel. Hummeln sind mit den Honigbienen verwandt, die seit mehreren Jahren wegen des dramatischen Bienensterbens für Schlagzeilen sorgen. Sind Hummeln etwa robuster als Bienen und davon gar nicht betroffen? Der Film folgt einer Hummelkönigin durchs Jahr. Regisseur Kurt Mündl war mit einer Spezialkamera dabei, als die junge Königin, noch stark geschwächt, aus ihrer Winterstarre erwacht und sich auf ihren ersten Frühlingsflug macht. Landläufig weiß man wenig über Hummeln und einiges, was wir zu wissen glauben, stimmt nicht: dass sie beispielsweise nicht stechen können, keinen Honig produzieren oder nicht einmal Blüten bestäuben können. Es waren nicht nur mehrere 100 Stunden Drehmaterial in exzellenter HD-Qualität notwendig, sondern auch Minihubschrauber, sogenannte Oktokopter, die den Hummelflug verfolgten. Oder Hightech-Endoskop-Optiken aus der Humanmedizin. "Damit konnten wir einer Hummelkönigin sogar unter den Bauch schauen, während sie in ihrem Erdbau saß", so der Regisseur. Der Film wartet mit einer großen Anzahl von Erst-Filmungen auf, mit Verhaltensweisen, die so noch nie zuvor dokumentiert wurden.

    Kurzinfo:
    Video: 9 632 kb/s, High L4, 50.000 FPS
    Auflösung: 1280x720, 16:9
    Audio: Deutsch AC3 2.0 384 kb/s

    Media-Info:
    Code:
    General
    Unique ID                   : 289608005852048326626160173902127458425 (0xD9E0791A7DBE288B1D1BC03F1CE06879)
    Complete name               :Hummeln.mkv
    Format                      : Matroska
    Format version              : Version 4 / Version 2
    File size                   : 3.03 GiB
    Duration                    : 43 min 21 s
    Overall bit rate            : 10.0 Mb/s
    Encoded date                : UTC 2018-07-19 14:22:31
    Writing application         : mkvmerge v21.0.0 ('Tardigrades Will Inherit The Earth') 64-bit
    Writing library             : libebml v1.3.5 + libmatroska v1.4.8
    
    Video
    ID                          : 1
    Format                      : AVC
    Format/Info                 : Advanced Video Codec
    Format profile              : [email protected]
    Format settings             : CABAC / 4 Ref Frames
    Format settings, CABAC      : Yes
    Format settings, ReFrames   : 4 frames
    Codec ID                    : V_MPEG4/ISO/AVC
    Duration                    : 43 min 21 s
    Bit rate                    : 9 632 kb/s
    Width                       : 1 280 pixels
    Height                      : 720 pixels
    Display aspect ratio        : 16:9
    Frame rate mode             : Constant
    Frame rate                  : 50.000 FPS
    Standard                    : Component
    Color space                 : YUV
    Chroma subsampling          : 4:2:0
    Bit depth                   : 8 bits
    Scan type                   : Progressive
    Bits/(Pixel*Frame)          : 0.209
    Stream size                 : 2.92 GiB (96%)
    Default                     : Yes
    Forced                      : No
    Color range                 : Limited
    Color primaries             : BT.709
    Transfer characteristics    : BT.709
    Matrix coefficients         : BT.709
    
    Audio
    ID                          : 2
    Format                      : AC-3
    Format/Info                 : Audio Coding 3
    Codec ID                    : A_AC3
    Duration                    : 43 min 21 s
    Bit rate mode               : Constant
    Bit rate                    : 384 kb/s
    Channel(s)                  : 2 channels
    Channel positions           : Front: L R
    Sampling rate               : 48.0 kHz
    Frame rate                  : 31.250 FPS (1536 SPF)
    Bit depth                   : 16 bits
    Compression mode            : Lossy
    Stream size                 : 119 MiB (4%)
    Service kind                : Complete Main
    Default                     : Yes
    Forced                      : No


    Dauer: 45 Min | Format: mkv | Größe: 3,11 GB

    Download Share-online.biz:

    # Mirror 1 Uploaded.net:

    Passwort:
    kein Passwort notwendig
    Geändert von flossZ (21.07.18 um 20:31 Uhr)

  2. Folgende Benutzer haben sich bei flossZ für diesen Beitrag bedankt:

    vanhelm (22.07.18)

  3. #Free Download
    Power Free Uploader
    Registriert seit
    16.07.2014
    Beiträge
    2417
     

Berechtigungen

  • Neue Themen erstellen: Nein
  • Themen beantworten: Nein
  • Anhänge hochladen: Nein
  • Beiträge bearbeiten: Nein
  •