Ergebnis 1 bis 1 von 1

Thema: Marie Antoinette und die Geheimnisse von Versailles 2018 German AC3 720p HDTV x264 - iND

  1. #1
    MyBoerse.bz Pro Member
    Registriert seit
    28.09.14
    Beiträge
    1.402
    Bedankt
    0
    Danke erhalten: 562

    Marie Antoinette und die Geheimnisse von Versailles 2018 German AC3 720p HDTV x264 - iND



    Marie Antoinette und die Geheimnisse von Versailles 2018 German AC3 720p HDTV x264 - iND

    Die letzte Monarchin Frankreichs: Marie Antoinette. Sie wurde vergöttert und verteufelt. Doch Marie Antoinette war zugleich Königin, Mutter, Geliebte. 230 Jahre nach seiner Errichtung erlangt Marie-Antoinettes Hameau, zu Deutsch Städtchen oder Weiler, seine alte Pracht. Marie Antoinette sah diesen Ort als Platz der Selbstverwirklichung. Die Dokumentation hält die aufwendigen Restaurierungsarbeiten mit der Kamera fest und zeichnet ein einfühlsames, vielseitiges Porträt der französischen Königin, die sich vor der erbarmungslosen Hofetikette in ihr privates Reich zurückzog und dafür mit dem Leben bezahlte.

    Kurzinfo:
    Video: 5 777 kb/s, High L4, 50.000 FPS
    Auflösung: 1280x720, 16:9
    Audio: Deutsch AC3 5.1 448 kb/s

    Media-Info:
    Code:
    General
    Unique ID                   : 20182268189820817554162557383585406740 (0xF2EF6A5A87D7808E04FC80DF7419F14)
    Complete name               : Marie Antoinette und die Geheimnisse von Versailles.mkv
    Format                      : Matroska
    Format version              : Version 4 / Version 2
    File size                   : 3.63 GiB
    Duration                    : 1 h 30 min
    Overall bit rate            : 5 777 kb/s
    Encoded date                : UTC 2018-07-19 18:50:54
    Writing application         : mkvmerge v21.0.0 ('Tardigrades Will Inherit The Earth') 64-bit
    Writing library             : libebml v1.3.5 + libmatroska v1.4.8
    
    Video
    ID                          : 1
    Format                      : AVC
    Format/Info                 : Advanced Video Codec
    Format profile              : [email protected]
    Format settings             : CABAC / 4 Ref Frames
    Format settings, CABAC      : Yes
    Format settings, ReFrames   : 4 frames
    Codec ID                    : V_MPEG4/ISO/AVC
    Duration                    : 1 h 30 min
    Bit rate                    : 5 326 kb/s
    Width                       : 1 280 pixels
    Height                      : 720 pixels
    Display aspect ratio        : 16:9
    Frame rate mode             : Constant
    Frame rate                  : 50.000 FPS
    Standard                    : Component
    Color space                 : YUV
    Chroma subsampling          : 4:2:0
    Bit depth                   : 8 bits
    Scan type                   : Progressive
    Bits/(Pixel*Frame)          : 0.116
    Stream size                 : 3.35 GiB (92%)
    Default                     : Yes
    Forced                      : No
    Color range                 : Limited
    Color primaries             : BT.709
    Transfer characteristics    : BT.709
    Matrix coefficients         : BT.709
    
    Audio
    ID                          : 2
    Format                      : AC-3
    Format/Info                 : Audio Coding 3
    Codec ID                    : A_AC3
    Duration                    : 1 h 30 min
    Bit rate mode               : Constant
    Bit rate                    : 448 kb/s
    Channel(s)                  : 6 channels
    Channel positions           : Front: L C R, Side: L R, LFE
    Sampling rate               : 48.0 kHz
    Frame rate                  : 31.250 FPS (1536 SPF)
    Bit depth                   : 16 bits
    Compression mode            : Lossy
    Stream size                 : 288 MiB (8%)
    Service kind                : Complete Main
    Default                     : Yes
    Forced                      : No


    Dauer: 92 Min | Format: mkv | Größe: 3,69 GB

    Download Share-online.biz:

    # Mirror 1 Uploaded.net:

    Passwort:
    kein Passwort notwendig

  2. #Free Download
     

Berechtigungen

  • Neue Themen erstellen: Nein
  • Themen beantworten: Nein
  • Anhänge hochladen: Nein
  • Beiträge bearbeiten: Nein
  •