Ergebnis 1 bis 1 von 1

Thema: Doomsday Countdown zur Apokalypse 2016 German DL AC3 720p HDTV x264 - iND

  1. #1
    MyBoerse.bz Pro Member
    Registriert seit
    28.09.14
    Beiträge
    1.402
    Bedankt
    0
    Danke erhalten: 562

    Doomsday Countdown zur Apokalypse 2016 German DL AC3 720p HDTV x264 - iND



    Doomsday Countdown zur Apokalypse 2016 German DL AC3 720p HDTV x264 - iND

    Bye-Bye, Menschheit. Hallo, Apokalypse! Dokureihe, in der in jeder Folge ein anderes Weltuntergangsszenario auf seine Wahrscheinlichkeit abgeklopft wird – egal, ob unser Planet von einem schwarzen Loch geschluckt, von Meteoriten zerbombt oder von Aliens überrannt wird. Wenn gar nichts mehr geht, kollidiert die Erde dann eben mit einem anderen, umherstreifenden Planeten. Man sieht schon: Unterhaltung pur!

    10 Teile:
    01. Asteroiden-Einschlag
    02. Schwarzes Loch
    03. Planetare Kollision
    04. Atomkrieg
    05. Solarsturm
    06. Mega-Eruption
    07. Tödliche Gammastrahlung
    08. Jenseits des Orbits
    09. Alien-Offensive
    10. Die Macht der Ozeane

    Kurzinfo:
    Video: 3 000 kb/s, [email protected], 25.000 fps
    Auflösung: 1280x720, 16:9
    Audio 1: Deutsch AC3 5.1 384 kbps
    Audio 2: Englisch AC3 2.0 448 kbps

    Media-Info:
    Code:
    General
    Unique ID                   : 135897924261276554956649171255754008613 (0x663CFCF8CE77B3A2E591EE2D4D4CA825)
    Complete name               : C:\Users\admin\Desktop\Neuer Ordner\yadsmood.01\01. Asteroiden-Einschlag.mkv
    Format                      : Matroska
    Format version              : Version 4 / Version 2
    File size                   : 1.25 GiB
    Duration                    : 46 min 43 s
    Overall bit rate            : 3 830 kb/s
    Encoded date                : UTC 2018-07-20T19:35:07Z
    Writing application         : HandBrake 1.1.1 2018061800
    Writing library             : Lavf57.7.2
    
    Video
    ID                          : 1
    Format                      : AVC
    Format/Info                 : Advanced Video Codec
    Format profile              : [email protected]
    Format settings             : CABAC / 4 Ref Frames
    Format settings, CABAC      : Yes
    Format settings, ReFrames   : 4 frames
    Codec ID                    : V_MPEG4/ISO/AVC
    Duration                    : 46 min 43 s
    Bit rate                    : 3 000 kb/s
    Width                       : 1 280 pixels
    Height                      : 720 pixels
    Display aspect ratio        : 16:9
    Frame rate mode             : Constant
    Frame rate                  : 25.000 FPS
    Color space                 : YUV
    Chroma subsampling          : 4:2:0
    Bit depth                   : 8 bits
    Scan type                   : Progressive
    Bits/(Pixel*Frame)          : 0.130
    Stream size                 : 977 MiB (76%)
    Writing library             : x264 core 155 r2901 7d0ff22
    Encoding settings           : cabac=1 / ref=3 / deblock=1:0:0 / analyse=0x3:0x113 / me=hex / subme=7 / psy=1 / psy_rd=1.00:0.00 / mixed_ref=1 / me_range=16 / chroma_me=1 / trellis=1 / 8x8dct=1 / cqm=0 / deadzone=21,11 / fast_pskip=1 / chroma_qp_offset=-2 / threads=18 / lookahead_threads=3 / sliced_threads=0 / nr=0 / decimate=1 / interlaced=0 / bluray_compat=0 / constrained_intra=0 / bframes=3 / b_pyramid=2 / b_adapt=1 / b_bias=0 / direct=1 / weightb=1 / open_gop=0 / weightp=2 / keyint=250 / keyint_min=25 / scenecut=40 / intra_refresh=0 / rc_lookahead=40 / rc=abr / mbtree=1 / bitrate=3000 / ratetol=1.0 / qcomp=0.60 / qpmin=0 / qpmax=69 / qpstep=4 / vbv_maxrate=62500 / vbv_bufsize=78125 / nal_hrd=none / filler=0 / ip_ratio=1.40 / aq=1:1.00
    Default                     : Yes
    Forced                      : No
    Color range                 : Limited
    Color primaries             : BT.709
    Transfer characteristics    : BT.709
    Matrix coefficients         : BT.709
    
    Audio #1
    ID                          : 2
    Format                      : AC-3
    Format/Info                 : Audio Coding 3
    Codec ID                    : A_AC3
    Duration                    : 46 min 43 s
    Bit rate mode               : Constant
    Bit rate                    : 384 kb/s
    Channel(s)                  : 6 channels
    Channel positions           : Front: L C R, Side: L R, LFE
    Sampling rate               : 48.0 kHz
    Frame rate                  : 31.250 FPS (1536 SPF)
    Bit depth                   : 16 bits
    Compression mode            : Lossy
    Stream size                 : 128 MiB (10%)
    Title                       : Surround
    Service kind                : Complete Main
    Default                     : Yes
    Forced                      : No
    
    Audio #2
    ID                          : 3
    Format                      : AC-3
    Format/Info                 : Audio Coding 3
    Codec ID                    : A_AC3
    Duration                    : 46 min 43 s
    Bit rate mode               : Constant
    Bit rate                    : 448 kb/s
    Channel(s)                  : 2 channels
    Channel positions           : Front: L R
    Sampling rate               : 48.0 kHz
    Frame rate                  : 31.250 FPS (1536 SPF)
    Bit depth                   : 16 bits
    Compression mode            : Lossy
    Stream size                 : 150 MiB (12%)
    Title                       : Stereo
    Service kind                : Complete Main
    Default                     : No
    Forced                      : No


    Dauer: 500 Min | Format: mkv| Größe: 12,40 GB

    Download Share-online.biz:

    # Mirror 1 Uploaded.net:

    Passwort:
    kein Passwort notwendig

  2. #Free Download
     

Berechtigungen

  • Neue Themen erstellen: Nein
  • Themen beantworten: Nein
  • Anhänge hochladen: Nein
  • Beiträge bearbeiten: Nein
  •