Ergebnis 1 bis 1 von 1

Thema: DDR Mobil COMPLETE 2017 German AC3 720p HDTV x264 - iND

  1. #1
    MyBoerse.bz Pro Member
    Registriert seit
    28.09.14
    Beiträge
    1.402
    Bedankt
    0
    Danke erhalten: 562

    DDR Mobil COMPLETE 2017 German AC3 720p HDTV x264 - iND



    DDR Mobil 2017 German AC3 720p HDTV x264 - iND

    Dokumentarreihe über die inzwischen teilweise zu Legenden gewordenen motorisierten Fortbewegungsmittel aus der ehemaligen DDR. „Vorwärts immer, rückwärts nimmer!“ – dieser markante Ausspruch von Erich Honecker war richtungsweisend, auch für die Fahrzeugflotte in der DDR. Die Doku zeigt deren gesamte Bandbreite. Kuriositäten, Originale und aus der Not geborene Erfindungen. Es waren längst nicht nur Trabis und Wartburgs, die auf den Kopfsteinpflasterstraßen zwischen Ahlbeck und Zittau herum holperten.

    4 Teile:
    01 Trabi Wartburg und Ostrennwagen
    02 Zwischen Reichsbahn und Rasendem Roland
    03 Hoch hinaus mit Interflug
    04 Trecker Laster und Multicar

    Kurzinfo:
    Video: 5 000 kb/s, High L4, 50.000 FPS
    Auflösung: 1280x720, 16:9
    Audio: German AC3 2.0 448 kb/s

    Media-Info:
    Code:
    General
    Unique ID                   : 214033509349722982013018295429040131691 (0xA1055ABEEE9A08459D68635F98C74E6B)
    Complete name               : 01 Trabi Wartburg und Ostrennwagen.mkv
    Format                      : Matroska
    Format version              : Version 4 / Version 2
    File size                   : 1.68 GiB
    Duration                    : 43 min 58 s
    Overall bit rate            : 5 457 kb/s
    Encoded date                : UTC 2018-06-29T04:08:26Z
    Writing application         : HandBrake 1.1.0 2018040700
    Writing library             : Lavf57.7.2
    
    Video
    ID                          : 1
    Format                      : AVC
    Format/Info                 : Advanced Video Codec
    Format profile              : [email protected]
    Format settings             : CABAC / 4 Ref Frames
    Format settings, CABAC      : Yes
    Format settings, ReFrames   : 4 frames
    Codec ID                    : V_MPEG4/ISO/AVC
    Duration                    : 43 min 58 s
    Bit rate                    : 5 000 kb/s
    Width                       : 1 280 pixels
    Height                      : 714 pixels
    Display aspect ratio        : 16:9
    Frame rate mode             : Constant
    Frame rate                  : 50.000 FPS
    Color space                 : YUV
    Chroma subsampling          : 4:2:0
    Bit depth                   : 8 bits
    Scan type                   : Progressive
    Bits/(Pixel*Frame)          : 0.109
    Stream size                 : 1.51 GiB (90%)
    Writing library             : x264 core 155 r2893 b00bcaf
    Encoding settings           : cabac=1 / ref=3 / deblock=1:0:0 / analyse=0x3:0x113 / me=hex / subme=7 / psy=1 / psy_rd=1.00:0.00 / mixed_ref=1 / me_range=16 / chroma_me=1 / trellis=1 / 8x8dct=1 / cqm=0 / deadzone=21,11 / fast_pskip=1 / chroma_qp_offset=-2 / threads=18 / lookahead_threads=3 / sliced_threads=0 / nr=0 / decimate=1 / interlaced=0 / bluray_compat=0 / constrained_intra=0 / bframes=3 / b_pyramid=2 / b_adapt=1 / b_bias=0 / direct=1 / weightb=1 / open_gop=0 / weightp=2 / keyint=500 / keyint_min=50 / scenecut=40 / intra_refresh=0 / rc_lookahead=40 / rc=abr / mbtree=1 / bitrate=5000 / ratetol=1.0 / qcomp=0.60 / qpmin=0 / qpmax=69 / qpstep=4 / vbv_maxrate=62500 / vbv_bufsize=78125 / nal_hrd=none / filler=0 / ip_ratio=1.40 / aq=1:1.00
    Default                     : Yes
    Forced                      : No
    Color range                 : Limited
    Color primaries             : BT.709
    Transfer characteristics    : BT.709
    Matrix coefficients         : BT.709
    
    Audio
    ID                          : 2
    Format                      : AC-3
    Format/Info                 : Audio Coding 3
    Codec ID                    : A_AC3
    Duration                    : 43 min 58 s
    Bit rate mode               : Constant
    Bit rate                    : 448 kb/s
    Channel(s)                  : 2 channels
    Channel positions           : Front: L R
    Sampling rate               : 48.0 kHz
    Frame rate                  : 31.250 FPS (1536 SPF)
    Bit depth                   : 16 bits
    Compression mode            : Lossy
    Stream size                 : 141 MiB (8%)
    Title                       : Stereo
    Service kind                : Complete Main
    Default                     : Yes
    Forced                      : No


    Dauer: 180 Min | Format: mkv | Größe: 6,79 GB

    Download Share-online.biz:

    # Mirror 1 Uploaded.net:

    Passwort:
    kein Passwort notwendig

  2. #Free Download
    Power Free Uploader
    Registriert seit
    16.07.2014
    Beiträge
    2417
     

Berechtigungen

  • Neue Themen erstellen: Nein
  • Themen beantworten: Nein
  • Anhänge hochladen: Nein
  • Beiträge bearbeiten: Nein
  •