Ergebnis 1 bis 1 von 1

Thema: Iron Monkey 1993 REMASTERED 1080p BluRay x264 - USURY

  1. #1
    MyBoerse.bz Pro Member Avatar von FireTiger
    Registriert seit
    29.01.15
    Beiträge
    4.194
    Bedankt
    2
    Danke erhalten: 498

    Iron Monkey 1993 REMASTERED 1080p BluRay x264 - USURY

    Iron.Monkey.1993.REMASTERED.1080p.BluRay.x264-USURY



    Title: Iron Monkey (1993)
    PG Rating: PG-13
    IMDB Rating: 7.6/10 from 14183 users Updated : 2018-07-08
    Metacritic: 79
    Genres: Action , Crime , Drama
    Actors: Rongguang Yu , Donnie Yen , Jean Wang , Sze-Man Tsang , Shun-Yee Yuen , James Wong , Shi-Kwan Yen , Fai Lee , Hou Hsiao , Brianne Brozey , Mandy Chan , Siu Wah Chan , Kwai Po Chun , Peter Doyle , William Duen Wai-Lun
    Director: Woo-Ping Yuen
    IMDB Runtime: 90
    Year: 1993
    Plot: A Hong Kong variation on Robin Hood. The corrupt officials of a Chinese village are continually robbed by a masked bandit know as "Iron Monkey" named after a benevolent deity. When all else fails the Govenor forces a traveling physician (Donnie Yen) into finding the bandit. The arrival of an evil Shaolin monk brings the Physician and Iron Monkey together to battle the corrupt government.

    Media info:
    Code:
    Iron.Monkey.1993.REMASTERED.1080p.BluRay.x264-USURY      $            $$
    .              $
    Video...: 1920x1040 12324kb/s @ 23.976fps                              $
    Audio1..: Chinese 768kb/s 6ch DTS                                     $
    Audio2..: English 768kb/s 6ch DTS                          $       _
    Subs....: English regular/SDH (muxed .srt)
    Size....: 8956.06mb (9391107627bytes)
    Runtime.: 1h 30mn
    IMDB....: https://www.imdb.com/title/tt0108148
    
    Remastered in 2K and uncut.
    https://screenshotcomparison.com/comparison/116356
    Code:
    Video
    ID : 1
    Format : AVC
    Format/Info : Advanced Video Codec
    Format profile : [email protected]
    Format settings : CABAC / 4 Ref Frames
    Format settings, CABAC : Yes
    Format settings, RefFrames : 4 frames
    Codec ID : V_MPEG4/ISO/AVC
    Duration : 1 h 30 min
    Bit rate : 12.3 Mb/s
    Width : 1 920 pixels
    Height : 1 040 pixels
    Display aspect ratio : 1.85:1
    Frame rate mode : Constant
    Frame rate : 23.976 (24000/1001) FPS
    Color space : YUV
    Chroma subsampling : 4:2:0
    Bit depth : 8 bits
    Scan type : Progressive
    Bits/(Pixel*Frame) : 0.257
    Stream size : 7.77 GiB (89%)
    Writing library : x264 core 155 r2901 7d0ff22
    Encoding settings : cabac=1 / ref=4 / deblock=1:-3:-3 / analyse=0x3:0x133 / me=umh / subme=9 / psy=1 / psy_rd=1.00:0.00 / mixed_ref=1 / me_range=16 / chroma_me=1 / trellis=2 / 8x8dct=1 / cqm=0 / deadzone=21,11 / fast_pskip=0 / chroma_qp_offset=-2 / threads=32 / lookahead_threads=2 / sliced_threads=0 / nr=0 / decimate=1 / interlaced=0 / bluray_compat=0 / constrained_intra=0 / bframes=3 / b_pyramid=2 / b_adapt=1 / b_bias=0 / direct=3 / weightb=1 / open_gop=0 / weightp=2 / keyint=240 / keyint_min=24 / scenecut=40 / intra_refresh=0 / rc_lookahead=50 / rc=2pass / mbtree=1 / bitrate=12324 / ratetol=1.0 / qcomp=0.60 / qpmin=0 / qpmax=69 / qpstep=4 / cplxblur=20.0 / qblur=0.5 / ip_ratio=1.40 / aq=1:1.00
    Language : English
    Default : Yes
    Forced : No
    
    Audio #1
    ID : 2
    Format : DTS
    Format/Info : Digital Theater Systems
    Mode : 16
    Format settings, Endianness : Big
    Codec ID : A_DTS
    Duration : 1 h 30 min
    Bit rate mode : Constant
    Bit rate : 768 kb/s
    Channel(s) : 6 channels
    Channel positions : Front: L C R, Side: L R, LFE
    Sampling rate : 48.0 kHz
    Frame rate : 93.750 FPS (512 SPF)
    Bit depth : 24 bits
    Compression mode : Lossy
    Stream size : 496 MiB (6%)
    Language : Chinese
    Default : Yes
    Forced : No
    
    Audio #2
    ID : 3
    Format : DTS
    Format/Info : Digital Theater Systems
    Mode : 16
    Format settings, Endianness : Big
    Codec ID : A_DTS
    Duration : 1 h 30 min
    Bit rate mode : Constant
    Bit rate : 768 kb/s
    Channel(s) : 6 channels
    Channel positions : Front: L C R, Side: L R, LFE
    Sampling rate : 48.0 kHz
    Frame rate : 93.750 FPS (512 SPF)
    Bit depth : 24 bits
    Compression mode : Lossy
    Stream size : 496 MiB (6%)
    Language : English
    Default : No
    Forced : No
    
    Text #1
    ID : 4
    Format : UTF-8
    Codec ID : S_TEXT/UTF8
    Codec ID/Info : UTF-8 Plain Text
    Duration : 1 h 27 min
    Bit rate : 55 b/s
    Count of elements : 1092
    Stream size : 35.8 KiB (0%)
    Title : English
    Language : English
    Default : Yes
    Forced : Yes
    
    Text #2
    ID : 5
    Format : UTF-8
    Codec ID : S_TEXT/UTF8
    Codec ID/Info : UTF-8 Plain Text
    Duration : 1 h 27 min
    Bit rate : 60 b/s
    Count of elements : 1202
    Stream size : 38.6 KiB (0%)
    Title : English SDH
    Language : English
    Default : No
    Forced : No
    
    Menu
    00:00:00.000 : en:00:00:00.000
    00:07:54.724 : en:00:07:54.724
    00:14:17.774 : en:00:14:17.774
    00:26:11.069 : en:00:26:11.069
    00:34:10.340 : en:00:34:10.340
    00:41:40.540 : en:00:41:40.540
    00:48:33.911 : en:00:48:33.911
    00:53:44.304 : en:00:53:44.304
    00:58:55.657 : en:00:58:55.657
    01:08:08.209 : en:01:08:08.209
    01:13:50.760 : en:01:13:50.760
    01:28:03.111 : en:01:28:03.111


    Screens:
    Code:
    https://imagecurl.com/viewer.php?file=38439744474326682607.jpg
    Imdb link / Youtube trailer:
    Code:
    https://www.imdb.com/title/tt0108148/
    https://www.youtube.com/watch?v=jj-MbKZliwo
    Language(Audio): English, Chinese (Multi2)
    Language(Subtitles): English
    Format: REMASTERED.1080p.BluRay.x264 (MKV)
    Hoster: Share-Online
    Size: 8.75 GB
    Password: - No Password -


    DDL - Download from One Click Hoster (Share-Online):
    Code:
    http://s2l.biz/ne5btbp2mcv

  2. #Free Download
    Power Free Uploader
    Registriert seit
    16.07.2014
    Beiträge
    2417
     

Berechtigungen

  • Neue Themen erstellen: Nein
  • Themen beantworten: Nein
  • Anhänge hochladen: Nein
  • Beiträge bearbeiten: Nein
  •