Votet für MyBoerse.bz
Topliste

Ergebnis 1 bis 1 von 1

Thema: Women of Mafia 2018 1080p BluRay x264 - ROVERS

  1. #1
    MyBoerse.bz Pro Member Avatar von FireTiger
    Registriert seit
    29.01.15
    Beiträge
    4.061
    Bedankt
    2
    Danke erhalten: 439

    Women of Mafia 2018 1080p BluRay x264 - ROVERS

    Women.of.Mafia.2018.1080p.BluRay.x264-ROVERS



    Title: Women of Mafia (2018)
    IMDB Rating: 4.7/10 from 280 users Updated : 2018-07-08
    Genres: Action , Crime , Drama
    Actors: Olga Boladz , Aleksandra Poplawska , Kasia Warnke , Julia Wieniawa-Narkiewicz , Janusz Chabior , Sebastian Fabijanski , Filip Guzla , Boguslaw Linda , Olaf Lubaszenko , Tomasz Oswiecinski , Szymon Radzimierski , Piotr Stramowski , Tomasz Albert , Marek Aniolkowski , Islam Asulanow
    Director: Patryk Vega
    IMDB Runtime: 138
    Year: 2018
    Plot: A former police officer goes under cover in the mafia.

    Media info:
    Code:
    Women.of.Mafia.2018.1080p.BluRay.x264-ROVERS
    
    Date......: 23.06.2018
    Video.....: X264 @ 9835Kbps
    FPS.......: 24.000
    Resolution: 1920x816
    Size......: 11200MB (11743883252 Bytes)
    Audio.....: DTS 1509Kbps 6ch
    Language..: Polish
    Subtitles.:  English
    Runtime...: 2h 18mn
    
    URL.......: https://www.imdb.com/title/tt7372728
    
    0ND & pH7 of SiLK 2012
    Code:
    Video
    ID : 1
    Format : AVC
    Format/Info : Advanced Video Codec
    Format profile : [email protected]
    Format settings : CABAC / 5 Ref Frames
    Format settings, CABAC : Yes
    Format settings, RefFrames : 5 frames
    Codec ID : V_MPEG4/ISO/AVC
    Duration : 2 h 18 min
    Bit rate : 9 835 kb/s
    Width : 1 920 pixels
    Height : 816 pixels
    Display aspect ratio : 2.35:1
    Frame rate mode : Constant
    Frame rate : 24.000 FPS
    Color space : YUV
    Chroma subsampling : 4:2:0
    Bit depth : 8 bits
    Scan type : Progressive
    Bits/(Pixel*Frame) : 0.262
    Stream size : 9.48 GiB (87%)
    Writing library : x264 core 155 r2901 7d0ff22
    Encoding settings : cabac=1 / ref=5 / deblock=1:-3:-3 / analyse=0x3:0x133 / me=umh / subme=9 / psy=1 / psy_rd=1.00:0.00 / mixed_ref=1 / me_range=16 / chroma_me=1 / trellis=2 / 8x8dct=1 / cqm=0 / deadzone=21,11 / fast_pskip=0 / chroma_qp_offset=-2 / threads=12 / lookahead_threads=1 / sliced_threads=0 / nr=0 / decimate=1 / interlaced=0 / bluray_compat=0 / constrained_intra=0 / bframes=3 / b_pyramid=2 / b_adapt=2 / b_bias=0 / direct=3 / weightb=1 / open_gop=0 / weightp=2 / keyint=250 / keyint_min=24 / scenecut=40 / intra_refresh=0 / rc_lookahead=60 / rc=2pass / mbtree=1 / bitrate=9835 / ratetol=1.0 / qcomp=0.60 / qpmin=10 / qpmax=69 / qpstep=4 / cplxblur=20.0 / qblur=0.5 / ip_ratio=1.40 / aq=1:0.70
    Default : Yes
    Forced : No
    
    Audio
    ID : 2
    Format : DTS
    Format/Info : Digital Theater Systems
    Mode : 16
    Format settings, Endianness : Big
    Codec ID : A_DTS
    Duration : 2 h 18 min
    Bit rate mode : Constant
    Bit rate : 1 509 kb/s
    Channel(s) : 6 channels
    Channel positions : Front: L C R, Side: L R, LFE
    Sampling rate : 48.0 kHz
    Frame rate : 93.750 FPS (512 SPF)
    Bit depth : 24 bits
    Compression mode : Lossy
    Stream size : 1.45 GiB (13%)
    Title : Polish DTS 1509 kbps
    Language : Polish
    Default : Yes
    Forced : No
    
    Text
    ID : 3
    Format : UTF-8
    Codec ID : S_TEXT/UTF8
    Codec ID/Info : UTF-8 Plain Text
    Duration : 2 h 16 min
    Bit rate : 42 b/s
    Count of elements : 1558
    Stream size : 42.5 KiB (0%)
    Title : English
    Language : English
    Default : Yes
    Forced : No
    
    Menu
    00:00:00.000 : :
    00:08:50.040 : :
    00:19:15.415 : :
    00:28:05.125 : :
    00:39:12.500 : :
    00:48:12.541 : :
    00:58:56.708 : :
    01:08:07.333 : :
    01:18:15.666 : :
    01:28:36.707 : :
    01:44:42.791 : :
    01:59:04.750 : :


    Screens:
    Code:
    https://imagecurl.com/viewer.php?file=10380879353023618502.jpg
    Imdb link / Youtube trailer:
    Code:
    https://www.imdb.com/title/tt7372728/
    https://www.youtube.com/watch?v=9-YLCLTFTn4
    Language(Audio): Polish
    Language(Subtitles): English
    Format: 1080p.BluRay.x264 (MKV)
    Hoster: Share-Online
    Size: 10.94 GB
    Password: - No Password -


    DDL - Download from One Click Hoster (Share-Online):
    Code:
    http://s2l.biz/69xatbp71yos

  2. #Free Download
    Power Free Uploader
    Registriert seit
    16.07.2014
    Beiträge
    2417
     

Berechtigungen

  • Neue Themen erstellen: Nein
  • Themen beantworten: Nein
  • Anhänge hochladen: Nein
  • Beiträge bearbeiten: Nein
  •