Votet für MyBoerse.bz
Topliste

Ergebnis 1 bis 1 von 1

Thema: Psych 9 2010 1080p BluRay x264 DTS - FGT

  1. #1
    MyBoerse.bz Pro Member Avatar von FireTiger
    Registriert seit
    29.01.15
    Beiträge
    4.061
    Bedankt
    2
    Danke erhalten: 438

    Psych 9 2010 1080p BluRay x264 DTS - FGT

    Psych.9.2010.1080p.BluRay.x264.DTS-FGT



    Title: Psych:9 (2010)
    PG Rating: R
    IMDB Rating: 4.5/10 from 1996 users Updated : 2018-07-08
    Genres: Horror , Mystery , Thriller
    Actors: Sara Foster , Cary Elwes , Michael Biehn , Gabriel Mann , Colleen Camp , Winter Ave Zoli , Susie Amy , Katherine Shanklin , Ryan James , Brian Caspe , Joel Kirby , Jordan Ninkovich
    Director: Andrew Shortell
    IMDB Runtime: 98
    Year: 2010
    Plot: A young woman (Sara Foster) with a troubled past takes a job at recently closed down hospital. Working the night shift alone she begins to experience a series of unsettling events that lead her to believe that the hospital may be connected to a number of recent murders in the area. To uncover the truth she will have to revisit the past behind the walls of Psych:9.

    Media info:
    Code:
    Video
    ID : 1
    Format : AVC
    Format/Info : Advanced Video Codec
    Format profile : [email protected]
    Format settings : CABAC / 5 Ref Frames
    Format settings, CABAC : Yes
    Format settings, ReFrames : 5 frames
    Codec ID : V_MPEG4/ISO/AVC
    Duration : 1 h 38 min
    Bit rate : 11.2 Mb/s
    Width : 1 920 pixels
    Height : 818 pixels
    Display aspect ratio : 2.35:1
    Frame rate mode : Constant
    Frame rate : 23.976 FPS
    Color space : YUV
    Chroma subsampling : 4:2:0
    Bit depth : 8 bits
    Scan type : Progressive
    Bits/(Pixel*Frame) : 0.298
    Stream size : 7.50 GiB (86%)
    Writing library : x264 core 107 r1766 f9f0035
    Encoding settings : cabac=1 / ref=5 / deblock=1:-3:-3 / analyse=0x3:0x113 / me=umh / subme=10 / psy=1 / psy_rd=1.10:0.15 / mixed_ref=1 / me_range=48 / chroma_me=1 / trellis=2 / 8x8dct=1 / cqm=2 / deadzone=21,11 / fast_pskip=0 / chroma_qp_offset=-2 / threads=12 / sliced_threads=0 / nr=0 / decimate=1 / interlaced=0 / constrained_intra=0 / bframes=6 / b_pyramid=2 / b_adapt=2 / b_bias=0 / direct=3 / weightb=1 / open_gop=0 / weightp=2 / keyint=250 / keyint_min=23 / scenecut=40 / intra_refresh=0 / rc_lookahead=60 / rc=2pass / mbtree=1 / bitrate=11210 / ratetol=1.0 / qcomp=0.70 / qpmin=10 / qpmax=51 / qpstep=4 / cplxblur=20.0 / qblur=0.5 / vbv_maxrate=40000 / vbv_bufsize=30000 / ip_ratio=1.40 / aq=1:0.90 / nal_hrd=none
    Language : English
    Default : Yes
    Forced : No
    
    Audio
    ID : 2
    Format : DTS
    Format/Info : Digital Theater Systems
    Codec ID : A_DTS
    Duration : 1 h 38 min
    Bit rate mode : Constant
    Bit rate : 1 509 kb/s
    Channel(s) : 6 channels
    Channel positions : Front: L C R, Side: L R, LFE
    Sampling rate : 48.0 kHz
    Frame rate : 93.750 FPS (512 SPF)
    Bit depth : 24 bits
    Compression mode : Lossy
    Stream size : 1.03 GiB (12%)
    Language : English
    Default : Yes
    Forced : No
    
    Text
    ID : 3
    Format : UTF-8
    Codec ID : S_TEXT/UTF8
    Codec ID/Info : UTF-8 Plain Text
    Language : English
    Default : No
    Forced : No


    Screens:
    Code:
    https://imagecurl.com/viewer.php?file=20478441541271749750.png
    https://imagecurl.com/viewer.php?file=34219235440480059223.png
    https://imagecurl.com/viewer.php?file=30944622965365241786.png
    Imdb link / Youtube trailer:
    Code:
    https://www.imdb.com/title/tt0901504/
    https://www.youtube.com/watch?v=UiIMn80_Sg0
    Language(Audio): English
    Language(Subtitles): English
    Format: 1080p.BluRay.x264.DTS (MKV)
    Hoster: Share-Online
    Size: 8.70 GB
    Password: - No Password -


    DDL - Download from One Click Hoster (Share-Online):
    Code:
    http://s2l.biz/wkt9tbpfseca

  2. #Free Download
    Power Free Uploader
    Registriert seit
    16.07.2014
    Beiträge
    2417
     

Berechtigungen

  • Neue Themen erstellen: Nein
  • Themen beantworten: Nein
  • Anhänge hochladen: Nein
  • Beiträge bearbeiten: Nein
  •