Votet für MyBoerse.bz
Topliste

Ergebnis 1 bis 1 von 1

Thema: Die Eiskoenigin Voellig Unverfroren Frozen 2013 German DTS DL 1080p BluRay x265 - IND

  1. #1
    MyBoerse.bz Pro Member Avatar von schuetter
    Registriert seit
    17.05.15
    Beiträge
    508
    Bedankt
    2
    Danke erhalten: 85

    Die Eiskoenigin Voellig Unverfroren Frozen 2013 German DTS DL 1080p BluRay x265 - IND

    Die Eiskoenigin Voellig Unverfroren Frozen 2013 German DTS DL 1080p BluRay x265 - IND



    Beschreibung
    Das Königreich Arendelle fällt in einen ewig währenden Winter. Um gegen das kalte Schicksal des Reichs anzukämpfen und den Frostzauber aufzuheben, schließt sich die Königstochter Anna (Kristen Bell) mit dem schroffen Kristoff (Jonathan Groff) zusammen, einem draufgängerischen Bergbewohner. Zusätzlich stehen ihnen noch das treue Rentier Sven und der tollpatschige Schneemann Olaf (Josh Gad / Hape Kerkeling) zur Seite. Ihr Vorhaben kann ihnen nur gelingen, wenn sie Annas Schwester Elsa (Idina Menzel), die die Eiszeit verursacht hat und mittlerweile als Eiskönigin bekannt ist, ausfindig machen. Auf ihrer wagemutigen Reise müssen sie gegen geheimnisvolle Kreaturen ankämpfen, sich gegen scharze Magie durchsetzen und dem Angriff der Elemente strotzen. Hinter jeder Ecke lauert eine neue Gefahr und ihre Reise wird zum Wettlauf gegen die Zeit.

    NFO

    Code:
    Die Eiskoenigin Voellig Unverfroren Frozen 2013 German DTS DL 1080p BluRay x265.mkv
    Format .........: MKV (HEVC x265)
    Size ...........: 3.81 GB
    Duration .......: 1h 42min
    Resolution .....: 1920 x 860
    Video Bitrate ..: 2207 Kbps
    Audio 1 ........: German DTS 5.1 / 1509 kbps
    Audio 2 ........: English DTS 5.1 / 1509 kbps
    Subs 1 .........: German komplett (VobSub getrennt)
    Subs 2 .........: English complete SDH (VobSub separated)
    Chapters .......: ja wie Blu-ray
    Source .........: BluRay.Remux-HaDe


    Mediainfo

    Code:
    General
    Die Eiskoenigin Voellig Unverfroren Frozen 2013 German DTS DL 1080p BluRay x265.mkv
    Format                         : Matroska
    Format version                 : Version 4 / Version 2
    File size                      : 3.81 GiB
    Duration                       : 1 h 42 min
    Overall bit rate               : 5 331 kb/s
    Encoded date                   : UTC 2017-08-07 13:56:58
    Writing application            : mkvmerge v7.9.0 ('Birds') 64bit
    Writing library                : libebml v1.3.1 + libmatroska v1.4.2
    
    Video
    ID                             : 1
    Format                         : HEVC
    Format/Info                    : High Efficiency Video Coding
    Format profile                 : [email protected]@Main
    Codec ID                       : V_MPEGH/ISO/HEVC
    Duration                       : 1 h 42 min
    Bit rate                       : 2 310 kb/s
    Width                          : 1 920 pixels
    Height                         : 860 pixels
    Display aspect ratio           : 2.25:1
    Frame rate mode                : Constant
    Frame rate                     : 23.976 (24000/1001) FPS
    Color space                    : YUV
    Chroma subsampling             : 4:2:0
    Bit depth                      : 8 bits
    Bits/(Pixel*Frame)             : 0.058
    Stream size                    : 1.65 GiB (43%)
    Writing library                : x265 2.1:[Linux][GCC 4.8.4][64 bit] 8bit
    Encoding settings              : wpp / ctu=64 / min-cu-size=8 / max-tu-size=32 / tu-intra-depth=1 / tu-inter-depth=1 / me=1 / subme=2 / merange=57 / no-rect / no-amp / max-merge=2 / temporal-mvp / no-early-skip / rskip / rdpenalty=0 / no-tskip / no-tskip-fast / strong-intra-smoothing / no-lossless / no-cu-lossless / no-constrained-intra / no-fast-intra / open-gop / no-temporal-layers / interlace=0 / keyint=240 / min-keyint=24 / scenecut=40 / rc-lookahead=20 / lookahead-slices=5 / bframes=4 / bframe-bias=0 / b-adapt=2 / ref=3 / limit-refs=3 / no-limit-modes / weightp / no-weightb / aq-mode=1 / qg-size=32 / aq-strength=1,00 / cbqpoffs=0 / crqpoffs=0 / rd=3 / psy-rd=2,00 / rdoq-level=0 / psy-rdoq=0,00 / log2-max-poc-lsb=8 / no-rd-refine / signhide / deblock=0:0 / sao / no-sao-non-deblock / b-pyramid / cutree / no-intra-refresh / rc=crf / crf=20,0 / qcomp=0,60 / qpmin=0 / qpmax=69 / qpstep=4 / ipratio=1,40 / pbratio=1,30
    Default                        : Yes
    Forced                         : No
    Color range                    : Limited
    Color primaries                : BT.709
    Transfer characteristics       : BT.709
    Matrix coefficients            : BT.709
    
    Audio #1
    ID                             : 2
    Format                         : DTS
    Format/Info                    : Digital Theater Systems
    Codec ID                       : A_DTS
    Duration                       : 1 h 42 min
    Bit rate mode                  : Constant
    Bit rate                       : 1 509 kb/s
    Channel(s)                     : 6 channels
    Channel positions              : Front: L C R, Side: L R, LFE
    Sampling rate                  : 48.0 kHz
    Frame rate                     : 93.750 FPS (512 SPF)
    Bit depth                      : 24 bits
    Compression mode               : Lossy
    Stream size                    : 1.08 GiB (28%)
    Language                       : German
    Default                        : Yes
    Forced                         : No
    
    Audio #2
    ID                             : 3
    Format                         : DTS
    Format/Info                    : Digital Theater Systems
    Codec ID                       : A_DTS
    Duration                       : 1 h 42 min
    Bit rate mode                  : Constant
    Bit rate                       : 1 509 kb/s
    Channel(s)                     : 6 channels
    Channel positions              : Front: L C R, Side: L R, LFE
    Sampling rate                  : 48.0 kHz
    Frame rate                     : 93.750 FPS (512 SPF)
    Bit depth                      : 24 bits
    Compression mode               : Lossy
    Stream size                    : 1.08 GiB (28%)
    Language                       : English
    Default                        : No
    Forced                         : No
    
    Menu
    00:00:00.000                   : en:Chapter 1
    00:05:59.824                   : en:Chapter 2
    00:11:37.954                   : en:Chapter 3
    00:19:53.747                   : en:Chapter 4
    00:31:03.208                   : en:Chapter 5
    00:38:39.515                   : en:Chapter 6
    00:44:21.315                   : en:Chapter 7
    00:50:51.538                   : en:Chapter 8
    00:57:48.413                   : en:Chapter 9
    01:02:57.430                   : en:Chapter 10
    01:09:36.078                   : en:Chapter 11
    01:13:34.900                   : en:Chapter 12
    01:18:07.631                   : en:Chapter 13
    01:22:33.771                   : en:Chapter 14
    01:27:10.840                   : en:Chapter 15
    01:32:33.579                   : en:Chapter 16


    Sprache: Deutsch | Laufzeit: 1 h 42 min | Größe: 3,81 GiB | Format: x265

    Download



    Download:




    Bei Fragen/Probleme/Wünschen stehe ich per PM zur Verfügung.
    Eine Anfrage per PM wird schneller bearbeitet, wenn ein Link vorhanden ist



  2. #Free Download
     

Berechtigungen

  • Neue Themen erstellen: Nein
  • Themen beantworten: Nein
  • Anhänge hochladen: Nein
  • Beiträge bearbeiten: Nein
  •