Votet für MyBoerse.bz
Topliste

Ergebnis 1 bis 1 von 1

Thema: WM 2018 GrA Russland vs Saudi Arabien Full Coverage German AC3 720p HDTV x264 - iND

  1. #1
    MyBoerse.bz Pro Member
    Registriert seit
    28.09.14
    Beiträge
    1.299
    Bedankt
    0
    Danke erhalten: 536

    WM 2018 GrA Russland vs Saudi Arabien Full Coverage German AC3 720p HDTV x264 - iND



    WM 2018 GrA Russland vs Saudi Arabien Full Coverage German AC3 720p HDTV x264 - iND

    Die Endrunde der 21. Fußball-Weltmeisterschaft findet 2018 vom 14. Juni bis 15. Juli in Russland statt. Die 64 Spiele mit 32 Teams werden in Jekaterinburg, Kaliningrad, Kasan, Nischni Nowgorod, Moskau (Luschniki und Spartak), Rostow am Don, Samara, Saransk, Sotschi, Sankt Petersburg und Wolgograd ausgetragen. Alle angegebenen Zeiten sind MESZ.

    Prematch 01: 59 Min Berichte vom deutschen Lager
    Prematch 02: 33 Min WM Eröffnungsfeier
    First Half: 63 Min
    Halftime and Second Half: 57 Min
    Postmatch: 49 Min

    Kurzinfo:
    Video: ca 5 000 kb/s, High L4.1, 50.000 FPS
    Auflösung: 1280x720, 16:9
    Audio: German AC3 5.1 640 kb/s
    Größe: je 45 Min Laufzeit ca. 1,70 GB
    oder je 1 Min Laufzeit 38 MB

    Media-Info:
    Code:
    General
    Unique ID                   : 314188062393239116125170888473103070126 (0xEC5E6B74F258690D1EB2D497C2D873AE)
    Complete name               : 001.A.Russland.vs.Saudi-Arabien.First.Half.mkv
    Format                      : Matroska
    Format version              : Version 4 / Version 2
    File size                   : 2.25 GiB
    Duration                    : 1 h 3 min
    Overall bit rate            : 5 049 kb/s
    Encoded date                : UTC 2018-06-14T15:58:50Z
    Writing application         : HandBrake 1.1.0 2018040700
    Writing library             : Lavf57.7.2
    
    Video
    ID                          : 1
    Format                      : AVC
    Format/Info                 : Advanced Video Codec
    Format profile              : [email protected]
    Format settings             : CABAC / 4 Ref Frames
    Format settings, CABAC      : Yes
    Format settings, ReFrames   : 4 frames
    Codec ID                    : V_MPEG4/ISO/AVC
    Duration                    : 1 h 3 min
    Bit rate                    : 4 600 kb/s
    Width                       : 1 280 pixels
    Height                      : 720 pixels
    Display aspect ratio        : 16:9
    Frame rate mode             : Constant
    Frame rate                  : 50.000 FPS
    Color space                 : YUV
    Chroma subsampling          : 4:2:0
    Bit depth                   : 8 bits
    Scan type                   : Progressive
    Bits/(Pixel*Frame)          : 0.100
    Stream size                 : 2.00 GiB (89%)
    Writing library             : x264 core 155 r2893 b00bcaf
    Encoding settings           : cabac=1 / ref=3 / deblock=1:0:0 / analyse=0x3:0x113 / me=hex / subme=7 / psy=1 / psy_rd=1.00:0.00 / mixed_ref=1 / me_range=16 / chroma_me=1 / trellis=1 / 8x8dct=1 / cqm=0 / deadzone=21,11 / fast_pskip=1 / chroma_qp_offset=-2 / threads=18 / lookahead_threads=3 / sliced_threads=0 / nr=0 / decimate=1 / interlaced=0 / bluray_compat=0 / constrained_intra=0 / bframes=3 / b_pyramid=2 / b_adapt=1 / b_bias=0 / direct=1 / weightb=1 / open_gop=0 / weightp=2 / keyint=500 / keyint_min=50 / scenecut=40 / intra_refresh=0 / rc_lookahead=40 / rc=abr / mbtree=1 / bitrate=4600 / ratetol=1.0 / qcomp=0.60 / qpmin=0 / qpmax=69 / qpstep=4 / vbv_maxrate=62500 / vbv_bufsize=78125 / nal_hrd=none / filler=0 / ip_ratio=1.40 / aq=1:1.00
    Default                     : Yes
    Forced                      : No
    Color range                 : Limited
    Color primaries             : BT.709
    Transfer characteristics    : BT.709
    Matrix coefficients         : BT.709
    
    Audio
    ID                          : 2
    Format                      : AC-3
    Format/Info                 : Audio Coding 3
    Codec ID                    : A_AC3
    Duration                    : 1 h 3 min
    Bit rate mode               : Constant
    Bit rate                    : 448 kb/s
    Channel(s)                  : 6 channels
    Channel positions           : Front: L C R, Side: L R, LFE
    Sampling rate               : 48.0 kHz
    Frame rate                  : 31.250 FPS (1536 SPF)
    Bit depth                   : 16 bits
    Compression mode            : Lossy
    Stream size                 : 204 MiB (9%)
    Title                       : Surround
    Service kind                : Complete Main
    Default                     : Yes
    Forced                      : No


    Dauer: 261 Min | Format: mkv | Größe: 10,60 GB

    Download Share-online.biz:

    # Mirror 1 Uploaded.net:

    Passwort:
    movie-blog.org



    ES WERDEN ALLE 64 WM SPIELE GEPOSTET
    IN DIE SUCHE EINFACH WM 2018 EINGEBEN DANN WERDEN ALLE SPIELE AUFGELISTET DIE BEREITS ONLINE

    Die Spiele sind in der Regel noch an dem Tag online, an dem sie stattfinden.

    Die GruppenSpiele umfassen in der Regel die erste und zweite Halbzeit komplett. (First Half, Second Half) Bei allen deutschen Spielen und ab Achtelfinale sind dann in der Regel auch die Vorberichte (Prematch), Nachberichte (Postmatch) und auch selbstverständlich Verlängerung (Extra Time) sowie Elfmeterschießen (Penalty) enthalten.
    Geändert von flossZ (16.06.18 um 22:16 Uhr)

  2. #Free Download
     

Berechtigungen

  • Neue Themen erstellen: Nein
  • Themen beantworten: Nein
  • Anhänge hochladen: Nein
  • Beiträge bearbeiten: Nein
  •