Votet für MyBoerse.bz
Topliste

Ergebnis 1 bis 1 von 1

Thema: Deutschland Weltmeister der Herzen 2006 German DL AC3 1080p HDTV x264 - iND

  1. #1
    MyBoerse.bz Pro Member
    Registriert seit
    28.09.14
    Beiträge
    1.290
    Bedankt
    0
    Danke erhalten: 536

    Deutschland Weltmeister der Herzen 2006 German DL AC3 1080p HDTV x264 - iND



    Deutschland Weltmeister der Herzen 2006 German DL AC3 1080p HDTV x264 - iND

    Es ist der traumhafte Konter zu Sönke Wortmanns "Deutschland. Ein Sommermärchen". In "Deutschland – Weltmeister der Herzen" sind nicht die Stars die Stars, sondern die Fans. Denn es waren nicht nur die Fußballer, die die WM zu einem unvergesslichen Party-Ereignis machten, sondern die Fußballbegeisterten auf der Straße. Vier Wochen lang begleitete das Filmteam deutsche und ausländische Fußballanhänger bei einer Weltmeisterschaft, die als das größte Fest aller Zeiten in die Geschichte eingegangen ist. Entstanden ist ein hochemotionaler Film, der Hoffnung, Freude und Ekstase, aber auch Leid und grenzenlose Trauer eingefangen hat. Die Fans gewähren der Kamera einen intimen Einblick in ihre Fußballseele und offenbaren erstaunliche Ansichten über die WM und ihren Gastgeber.

    Kurzinfo:
    Video: 10.6 Mb/s, High L4, 25.000 FPS
    Auflösung: 1920x1080, 16:9
    Audio 1: Deutsch AC3 5.1 384 kb/s
    Audio 2: Deutsch AC3 2.0 448 kb/s

    Media-Info:
    Code:
    General
    Unique ID                   : 318919547837132900932213118588540381416 (0xEFEDABB3310E34907F4FEBE0838B68E8)
    Complete name               : Weltmeister der Herzen
    ezreh\Deutschland - Weltmeister der Herzen.mkv
    Format                      : Matroska
    Format version              : Version 4 / Version 2
    File size                   : 3.16 GiB
    Duration                    : 42 min 33 s
    Overall bit rate            : 10.6 Mb/s
    Encoded date                : UTC 2018-06-07 16:08:51
    Writing application         : mkvmerge v21.0.0 ('Tardigrades Will Inherit The Earth') 64-bit
    Writing library             : libebml v1.3.5 + libmatroska v1.4.8
    
    Video
    ID                          : 1
    Format                      : AVC
    Format/Info                 : Advanced Video Codec
    Format profile              : [email protected]
    Format settings             : CABAC / 4 Ref Frames
    Format settings, CABAC      : Yes
    Format settings, ReFrames   : 4 frames
    Codec ID                    : V_MPEG4/ISO/AVC
    Duration                    : 42 min 33 s
    Bit rate                    : 9 795 kb/s
    Width                       : 1 920 pixels
    Height                      : 1 080 pixels
    Display aspect ratio        : 16:9
    Frame rate mode             : Constant
    Frame rate                  : 25.000 FPS
    Standard                    : Component
    Color space                 : YUV
    Chroma subsampling          : 4:2:0
    Bit depth                   : 8 bits
    Scan type                   : Interlaced
    Scan type, store method     : Separated fields
    Scan order                  : Top Field First
    Bits/(Pixel*Frame)          : 0.189
    Stream size                 : 2.91 GiB (92%)
    Default                     : Yes
    Forced                      : No
    Color range                 : Limited
    Color primaries             : BT.709
    Transfer characteristics    : BT.709
    Matrix coefficients         : BT.709
    
    Audio #1
    ID                          : 2
    Format                      : AC-3
    Format/Info                 : Audio Coding 3
    Codec ID                    : A_AC3
    Duration                    : 42 min 33 s
    Bit rate mode               : Constant
    Bit rate                    : 384 kb/s
    Channel(s)                  : 6 channels
    Channel positions           : Front: L C R, Side: L R, LFE
    Sampling rate               : 48.0 kHz
    Frame rate                  : 31.250 FPS (1536 SPF)
    Bit depth                   : 16 bits
    Compression mode            : Lossy
    Stream size                 : 117 MiB (4%)
    Service kind                : Complete Main
    Default                     : Yes
    Forced                      : No
    
    Audio #2
    ID                          : 3
    Format                      : AC-3
    Format/Info                 : Audio Coding 3
    Codec ID                    : A_AC3
    Duration                    : 42 min 33 s
    Bit rate mode               : Constant
    Bit rate                    : 448 kb/s
    Channel(s)                  : 2 channels
    Channel positions           : Front: L R
    Sampling rate               : 48.0 kHz
    Frame rate                  : 31.250 FPS (1536 SPF)
    Bit depth                   : 16 bits
    Compression mode            : Lossy
    Stream size                 : 136 MiB (4%)
    Service kind                : Complete Main
    Default                     : No
    Forced                      : No


    Dauer: 45 Min | Format: mkv | Größe: 3,26 GB

    Download Share-online.biz:

    # Mirror 1 Uploaded.net:

    Passwort:
    movie-blog.org

  2. #Free Download
     

Berechtigungen

  • Neue Themen erstellen: Nein
  • Themen beantworten: Nein
  • Anhänge hochladen: Nein
  • Beiträge bearbeiten: Nein
  •