Ergebnis 1 bis 1 von 1

Thema: Magische WM Momente Tore Träume Triumphe 2018 German DL AC3 1080p HDTV x264 - iND

  1. #1
    MyBoerse.bz Pro Member
    Registriert seit
    28.09.14
    Beiträge
    1.423
    Bedankt
    0
    Danke erhalten: 585

    Magische WM Momente Tore Träume Triumphe 2018 German DL AC3 1080p HDTV x264 - iND



    Magische WM Momente Tore Träume Triumphe 2018 German DL AC3 1080p HDTV x264 - iND

    Große Triumphe, spektakuläre Tore und legendäre Partien für die Ewigkeit – die Geschichte der Fußballweltmeisterschaften ist gespickt mit zahlreichen, unvergesslichen Momenten. Die von History produzierte fünfteilige Doku-Reihe „Magische WM-Momente – Tore, Träume & Triumphe“ beleuchtet in einstündigen Episoden die bemerkenswertesten WM-Erlebnisse aller Zeiten. In den einzelnen Episoden geht es unter anderem um den Aufstieg und Fall des Ausnahmekönners Diego Armando Maradona, die WM der Überraschungen 1990 und das unglaubliche 7:1 der deutschen Mannschaft gegen Gastgeber Brasilien im Halbfinale der WM 2014. Mit Anekdoten zahlreicher internationaler Ikonen wie Pelé, Gary Lineker und den deutschen WM-Helden Paul Breitner, Lothar Matthäus, Rudi Völler sowie Philipp Lahm dürfen die Zuschauer in Erinnerungen glorreicher WM-Tage schwelgen und sich auf die Magic Moments 2018 freuen.

    5 Folgen:
    01. Turniere im Schatten der Diktatur“ (Mexiko1970 - Argentinien 1978)
    02. Die WM der Überraschungen (Italien 1990)
    03. Das Turnier der großen Namen (Frankreich 1998)
    04. Maradona – Aufstieg und Fall (1982, 1986, 1990, 1994)
    05. 7 zu 1 (Brasilien 2014)

    Kurzinfo:
    Video: 8 386 kb/s, High L4, 25.000 FPS
    Auflösung: 1920x1080, 16:9
    Audio 1: Deutsch AC3 5.1 384 kb/s
    Audio 2: Englisch AC3 2.0 448 kb/s

    Media-Info:
    Code:
    General
    Unique ID                   : 11614797728949545765240976872458468638 (0x8BCEDBD9B4FFFFDBAC844594F6CBD1E)
    Complete name               : 01. Turniere im Schatten der Diktatur.mkv
    Format                      : Matroska
    Format version              : Version 4 / Version 2
    File size                   : 2.56 GiB
    Duration                    : 43 min 39 s
    Overall bit rate            : 8 386 kb/s
    Encoded date                : UTC 2018-06-03 06:57:49
    Writing application         : mkvmerge v21.0.0 ('Tardigrades Will Inherit The Earth') 64-bit
    Writing library             : libebml v1.3.5 + libmatroska v1.4.8
    
    Video
    ID                          : 1
    Format                      : AVC
    Format/Info                 : Advanced Video Codec
    Format profile              : [email protected]
    Format settings             : CABAC / 4 Ref Frames
    Format settings, CABAC      : Yes
    Format settings, ReFrames   : 4 frames
    Format settings, GOP        : M=4, N=24
    Codec ID                    : V_MPEG4/ISO/AVC
    Duration                    : 43 min 39 s
    Bit rate                    : 7 552 kb/s
    Width                       : 1 920 pixels
    Height                      : 1 080 pixels
    Display aspect ratio        : 16:9
    Frame rate mode             : Constant
    Frame rate                  : 25.000 FPS
    Standard                    : Component
    Color space                 : YUV
    Chroma subsampling          : 4:2:0
    Bit depth                   : 8 bits
    Scan type                   : Interlaced
    Scan type, store method     : Separated fields
    Scan order                  : Top Field First
    Bits/(Pixel*Frame)          : 0.146
    Stream size                 : 2.30 GiB (90%)
    Default                     : Yes
    Forced                      : No
    Color range                 : Limited
    Color primaries             : BT.709
    Transfer characteristics    : BT.709
    Matrix coefficients         : BT.709
    
    Audio #1
    ID                          : 2
    Format                      : AC-3
    Format/Info                 : Audio Coding 3
    Codec ID                    : A_AC3
    Duration                    : 43 min 39 s
    Bit rate mode               : Constant
    Bit rate                    : 384 kb/s
    Channel(s)                  : 6 channels
    Channel positions           : Front: L C R, Side: L R, LFE
    Sampling rate               : 48.0 kHz
    Frame rate                  : 31.250 FPS (1536 SPF)
    Bit depth                   : 16 bits
    Compression mode            : Lossy
    Stream size                 : 120 MiB (5%)
    Service kind                : Complete Main
    Default                     : Yes
    Forced                      : No
    
    Audio #2
    ID                          : 3
    Format                      : AC-3
    Format/Info                 : Audio Coding 3
    Codec ID                    : A_AC3
    Duration                    : 43 min 39 s
    Bit rate mode               : Constant
    Bit rate                    : 448 kb/s
    Channel(s)                  : 2 channels
    Channel positions           : Front: L R
    Sampling rate               : 48.0 kHz
    Frame rate                  : 31.250 FPS (1536 SPF)
    Bit depth                   : 16 bits
    Compression mode            : Lossy
    Stream size                 : 140 MiB (5%)
    Service kind                : Complete Main
    Default                     : No
    Forced                      : No


    Dauer: 225 Min | Format: mkv | Größe: 12,54 GB

    Download Share-online.biz:

    # Mirror 1 Uploaded.net:

    Passwort:
    movie-blog.org

  2. Folgende Benutzer haben sich bei flossZ für diesen Beitrag bedankt:

    papakosmas (18.07.18)

  3. #Free Download
     

Berechtigungen

  • Neue Themen erstellen: Nein
  • Themen beantworten: Nein
  • Anhänge hochladen: Nein
  • Beiträge bearbeiten: Nein
  •