Votet für MyBoerse.bz
Topliste

Ergebnis 1 bis 1 von 1

Thema: Im WM Fieber 2018 German DL AC3 1080p HDTV x264 - iND

  1. #1
    MyBoerse.bz Pro Member
    Registriert seit
    28.09.14
    Beiträge
    1.299
    Bedankt
    0
    Danke erhalten: 536

    Im WM Fieber 2018 German DL AC3 1080p HDTV x264 - iND



    Im WM Fieber 2018 German DL AC3 1080p HDTV x264 - iND

    Glorreiche Siege – bittere Niederlagen. Die von History produzierte Doku-Serie „Im WM-Fieber“ handelt sowohl von herausragenden Leistungen von Teams und Spielern als auch von fiesen Pleiten rund um acht Weltmeisterschaften zwischen 1970 und 1998. Unter anderem mit der herausragenden WM der Brasilianer in Mexiko 1970 und dem gewonnenen Finalspiel der Deutschen 1974 gegen die Holländer. Zudem dürfen Sie sich auf die besten und auch traurigsten Momente der Weltmeisterschaften in Argentinien, Spanien, Mexiko 1986, Italien und Frankreich freuen. Als Special gibt es die 20 besten WM-Momente on top. In sieben zweistündigen und einem einstündigen Teil werden noch einmal bedeutsame WM-Momente aufgezeigt, um so richtig auf die Weltmeisterschaft in Russland einzustimmen.

    8 Folgen:
    01. Mexiko 1970
    02. Deutschland 1974
    03. Argentinien 1978
    04. Spanien 1982
    05. Mexiko 1986
    06. Italien 1990
    07. Frankreich 1998
    08. Die 20 besten WM-Momente

    Kurzinfo:
    Video: 6 390 kb/s, High L4, 25.000 FPS
    Auflösung: 1920x1080, 16:9
    Audio 1: Deutsch AC3 5.1 384 kb/s
    Audio 2: Englisch AC3 2.0 448 kb/s

    Media-Info:
    Code:
    General
    Unique ID                   : 271781580988359064091868980202977087160 (0xCC773A80039526BCC8E712AF4AD7CEB8)
    Complete name               : 1. Mexiko 1970.mkv
    Format                      : Matroska
    Format version              : Version 4 / Version 2
    File size                   : 4.06 GiB
    Duration                    : 1 h 30 min
    Overall bit rate            : 6 390 kb/s
    Encoded date                : UTC 2018-06-03 07:07:05
    Writing application         : mkvmerge v21.0.0 ('Tardigrades Will Inherit The Earth') 64-bit
    Writing library             : libebml v1.3.5 + libmatroska v1.4.8
    
    Video
    ID                          : 1
    Format                      : AVC
    Format/Info                 : Advanced Video Codec
    Format profile              : [email protected]
    Format settings             : CABAC / 4 Ref Frames
    Format settings, CABAC      : Yes
    Format settings, ReFrames   : 4 frames
    Format settings, GOP        : M=4, N=24
    Codec ID                    : V_MPEG4/ISO/AVC
    Duration                    : 1 h 30 min
    Bit rate                    : 5 555 kb/s
    Width                       : 1 920 pixels
    Height                      : 1 080 pixels
    Display aspect ratio        : 16:9
    Frame rate mode             : Constant
    Frame rate                  : 25.000 FPS
    Standard                    : Component
    Color space                 : YUV
    Chroma subsampling          : 4:2:0
    Bit depth                   : 8 bits
    Scan type                   : Interlaced
    Scan type, store method     : Separated fields
    Scan order                  : Top Field First
    Bits/(Pixel*Frame)          : 0.107
    Stream size                 : 3.53 GiB (87%)
    Default                     : Yes
    Forced                      : No
    Color range                 : Limited
    Color primaries             : BT.709
    Transfer characteristics    : BT.709
    Matrix coefficients         : BT.709
    
    Audio #1
    ID                          : 2
    Format                      : AC-3
    Format/Info                 : Audio Coding 3
    Codec ID                    : A_AC3
    Duration                    : 1 h 30 min
    Bit rate mode               : Constant
    Bit rate                    : 384 kb/s
    Channel(s)                  : 6 channels
    Channel positions           : Front: L C R, Side: L R, LFE
    Sampling rate               : 48.0 kHz
    Frame rate                  : 31.250 FPS (1536 SPF)
    Bit depth                   : 16 bits
    Compression mode            : Lossy
    Stream size                 : 250 MiB (6%)
    Service kind                : Complete Main
    Default                     : Yes
    Forced                      : No
    
    Audio #2
    ID                          : 3
    Format                      : AC-3
    Format/Info                 : Audio Coding 3
    Codec ID                    : A_AC3
    Duration                    : 1 h 30 min
    Bit rate mode               : Constant
    Bit rate                    : 448 kb/s
    Channel(s)                  : 2 channels
    Channel positions           : Front: L R
    Sampling rate               : 48.0 kHz
    Frame rate                  : 31.250 FPS (1536 SPF)
    Bit depth                   : 16 bits
    Compression mode            : Lossy
    Stream size                 : 291 MiB (7%)
    Service kind                : Complete Main
    Default                     : No
    Forced                      : No


    Dauer: 700 Min | Format: mkv | Größe: 35,34 GB

    Download Share-online.biz:

    # Mirror 1 Uploaded.net:

    Passwort:
    movie-blog.org

  2. #Free Download
    Power Free Uploader
    Registriert seit
    16.07.2014
    Beiträge
    2417
     

Berechtigungen

  • Neue Themen erstellen: Nein
  • Themen beantworten: Nein
  • Anhänge hochladen: Nein
  • Beiträge bearbeiten: Nein
  •