Ergebnis 1 bis 1 von 1

Thema: Geliebt gehasst gefeuert Legendäre Fußballtrainer 2018 German DL AC3 1080p HDTV x264 - iND

  1. #1
    MyBoerse.bz Pro Member
    Registriert seit
    28.09.14
    Beiträge
    1.423
    Bedankt
    0
    Danke erhalten: 585

    Geliebt gehasst gefeuert Legendäre Fußballtrainer 2018 German DL AC3 1080p HDTV x264 - iND



    Geliebt gehasst gefeuert Legendäre Fußballtrainer 2018 German DL AC3 1080p HDTV x264 - iND

    Stratege an der Seitenlinie, Meistertrainer, Motivator, Retter in letzter Sekunde oder Erster auf der Abschussliste: Der Trainerberuf im Profifußball beinhaltet viele Facetten und ist von sportlichen Höhen und Tiefen gesäumt. Die fünfteilige History-Doku-Reihe „Geliebt, gehasst, gefeuert – Legendäre Fußballtrainer“ porträtiert in einstündigen Episoden den steinigen Weg einiger der bekanntesten und erfolgreichsten Vereinstrainer des Fußballs. In den einzelnen Episoden geht es unter anderem um Ex-Bayern- und Ex-Bondscoach Louis van Gaal, der mit den Münchnern, Ajax Amsterdam und dem FC Barcelona seine größten Erfolge feierte. Weitere Episoden befassen sich mit den ehemaligen „Three Lions“-Trainern Sven-Göran Eriksson und Roy Hodgson, sowie mit dem italienischen Coach Claudio Ranieri, der in der Saison 2015/16 mit Underdog Leicester City die Premier League gewann.

    5 Folgen:
    01. Louis van Gaal
    02. Sven-Göran Eriksson
    03. Roy Hodgson
    04. Claudio Ranieri
    05. Gérard Houllier

    Kurzinfo:
    Video: 6 578 kb/s, High L4, 25.000 FPS
    Auflösung: 1920x1080, 16:9
    Audio 1: Deutsch AC3 5.1 384 kb/s
    Audio 2: Englisch AC3 2.0 448 kb/s

    Media-Info:
    Code:
    General
    Unique ID                   : 243211080747270064443322346773085869216 (0xB6F8C01516D2BA4C20F38203C052D4A0)
    Complete name               : 1. Louis van Gaal.mkv
    Format                      : Matroska
    Format version              : Version 4 / Version 2
    File size                   : 1.92 GiB
    Duration                    : 41 min 40 s
    Overall bit rate            : 6 578 kb/s
    Encoded date                : UTC 2018-06-07 12:05:58
    Writing application         : mkvmerge v21.0.0 ('Tardigrades Will Inherit The Earth') 64-bit
    Writing library             : libebml v1.3.5 + libmatroska v1.4.8
    
    Video
    ID                          : 1
    Format                      : AVC
    Format/Info                 : Advanced Video Codec
    Format profile              : [email protected]
    Format settings             : CABAC / 4 Ref Frames
    Format settings, CABAC      : Yes
    Format settings, ReFrames   : 4 frames
    Codec ID                    : V_MPEG4/ISO/AVC
    Duration                    : 41 min 40 s
    Bit rate                    : 5 744 kb/s
    Width                       : 1 920 pixels
    Height                      : 1 080 pixels
    Display aspect ratio        : 16:9
    Frame rate mode             : Constant
    Frame rate                  : 25.000 FPS
    Standard                    : Component
    Color space                 : YUV
    Chroma subsampling          : 4:2:0
    Bit depth                   : 8 bits
    Scan type                   : Interlaced
    Scan type, store method     : Separated fields
    Scan order                  : Top Field First
    Bits/(Pixel*Frame)          : 0.111
    Stream size                 : 1.67 GiB (87%)
    Default                     : Yes
    Forced                      : No
    Color range                 : Limited
    Color primaries             : BT.709
    Transfer characteristics    : BT.709
    Matrix coefficients         : BT.709
    
    Audio #1
    ID                          : 2
    Format                      : AC-3
    Format/Info                 : Audio Coding 3
    Codec ID                    : A_AC3
    Duration                    : 41 min 40 s
    Bit rate mode               : Constant
    Bit rate                    : 384 kb/s
    Channel(s)                  : 6 channels
    Channel positions           : Front: L C R, Side: L R, LFE
    Sampling rate               : 48.0 kHz
    Frame rate                  : 31.250 FPS (1536 SPF)
    Bit depth                   : 16 bits
    Compression mode            : Lossy
    Stream size                 : 114 MiB (6%)
    Service kind                : Complete Main
    Default                     : Yes
    Forced                      : No
    
    Audio #2
    ID                          : 3
    Format                      : AC-3
    Format/Info                 : Audio Coding 3
    Codec ID                    : A_AC3
    Duration                    : 41 min 40 s
    Bit rate mode               : Constant
    Bit rate                    : 448 kb/s
    Channel(s)                  : 2 channels
    Channel positions           : Front: L R
    Sampling rate               : 48.0 kHz
    Frame rate                  : 31.250 FPS (1536 SPF)
    Bit depth                   : 16 bits
    Compression mode            : Lossy
    Stream size                 : 134 MiB (7%)
    Service kind                : Complete Main
    Default                     : No
    Forced                      : No


    Dauer: 225 Min | Format: mkv | Größe: 8,15 GB

    Download Share-online.biz:

    # Mirror 1 Uploaded.net:

    Passwort:
    movie-blog.org

  2. #Free Download
     

Berechtigungen

  • Neue Themen erstellen: Nein
  • Themen beantworten: Nein
  • Anhänge hochladen: Nein
  • Beiträge bearbeiten: Nein
  •