Ergebnis 1 bis 1 von 1

Thema: Wembley 66 Das verflixte dritte Tor 2018 German DL AC3 1080p HDTV x264 - iND

  1. #1
    MyBoerse.bz Pro Member
    Registriert seit
    28.09.14
    Beiträge
    1.423
    Bedankt
    0
    Danke erhalten: 585

    Wembley 66 Das verflixte dritte Tor 2018 German DL AC3 1080p HDTV x264 - iND



    Wembley 66 Das verflixte dritte Tor 2018 German DL AC3 1080p HDTV x264 - iND

    Wohl keine Entscheidung der Fußballgeschichte ist so umstritten wie Englands dritter Treffer im WM-Finale 1966 gegen Deutschland: Tor oder nicht Tor? Das ist die Frage - seit Jahrzenten. Die 45-minütige Dokumentation bringt Licht ins Dunkel der schmerzlichsten deutschen Fußballniederlage und lässt den Zuschauer alle dramatischen Höhepunkte des gesamten Turniers noch einmal durchleben. Spannende Hintergründe, unbekannte Anekdoten und die Erinnerungen prominenter Zeitzeugen verdichten den Film zu einem ebenso sportiven wie unterhaltsamen Fernseherlebnis.

    Kurzinfo:
    Video: 7 709 kb/s, High L4, 25.000 FPS
    Auflösung: 1920x1080, 16:9
    Audio 1: Deutsch AC3 5.1 384 kb/s
    Audio 2: Englisch AC3 2.0 448 kb/s

    Media-Info:
    Code:
    General
    Unique ID                   : 171524573478449110138248264522261402794 (0x810A6E64D46856FC6B44271C396114AA)
    Complete name               : Das verflixte dritte Tor Wembley 66 - Die wahre Geschichte.mkv
    Format                      : Matroska
    Format version              : Version 4 / Version 2
    File size                   : 2.35 GiB
    Duration                    : 43 min 40 s
    Overall bit rate            : 7 709 kb/s
    Encoded date                : UTC 2018-06-07 15:17:54
    Writing application         : mkvmerge v21.0.0 ('Tardigrades Will Inherit The Earth') 64-bit
    Writing library             : libebml v1.3.5 + libmatroska v1.4.8
    
    Video
    ID                          : 1
    Format                      : AVC
    Format/Info                 : Advanced Video Codec
    Format profile              : [email protected]
    Format settings             : CABAC / 4 Ref Frames
    Format settings, CABAC      : Yes
    Format settings, ReFrames   : 4 frames
    Codec ID                    : V_MPEG4/ISO/AVC
    Duration                    : 43 min 40 s
    Bit rate                    : 6 874 kb/s
    Width                       : 1 920 pixels
    Height                      : 1 080 pixels
    Display aspect ratio        : 16:9
    Frame rate mode             : Constant
    Frame rate                  : 25.000 FPS
    Standard                    : Component
    Color space                 : YUV
    Chroma subsampling          : 4:2:0
    Bit depth                   : 8 bits
    Scan type                   : Interlaced
    Scan type, store method     : Separated fields
    Scan order                  : Top Field First
    Bits/(Pixel*Frame)          : 0.133
    Stream size                 : 2.10 GiB (89%)
    Default                     : Yes
    Forced                      : No
    Color range                 : Limited
    Color primaries             : BT.709
    Transfer characteristics    : BT.709
    Matrix coefficients         : BT.709
    
    Audio #1
    ID                          : 2
    Format                      : AC-3
    Format/Info                 : Audio Coding 3
    Codec ID                    : A_AC3
    Duration                    : 43 min 40 s
    Bit rate mode               : Constant
    Bit rate                    : 384 kb/s
    Channel(s)                  : 6 channels
    Channel positions           : Front: L C R, Side: L R, LFE
    Sampling rate               : 48.0 kHz
    Frame rate                  : 31.250 FPS (1536 SPF)
    Bit depth                   : 16 bits
    Compression mode            : Lossy
    Stream size                 : 120 MiB (5%)
    Service kind                : Complete Main
    Default                     : Yes
    Forced                      : No
    
    Audio #2
    ID                          : 3
    Format                      : AC-3
    Format/Info                 : Audio Coding 3
    Codec ID                    : A_AC3
    Duration                    : 43 min 40 s
    Bit rate mode               : Constant
    Bit rate                    : 448 kb/s
    Channel(s)                  : 2 channels
    Channel positions           : Front: L R
    Sampling rate               : 48.0 kHz
    Frame rate                  : 31.250 FPS (1536 SPF)
    Bit depth                   : 16 bits
    Compression mode            : Lossy
    Stream size                 : 140 MiB (6%)
    Service kind                : Complete Main
    Default                     : No
    Forced                      : No


    Dauer: 45 Min | Format: mkv | Größe: 2,42 GB

    Download Share-online.biz:

    # Mirror 1 Uploaded.net:

    Passwort:
    movie-blog.org

  2. #Free Download
     

Berechtigungen

  • Neue Themen erstellen: Nein
  • Themen beantworten: Nein
  • Anhänge hochladen: Nein
  • Beiträge bearbeiten: Nein
  •