Votet für MyBoerse.bz
Topliste

Ergebnis 1 bis 1 von 1

Thema: Das Wunder von Bern Das Spiel 2004 German AC3 1080p HDTV x264 - iND

  1. #1
    MyBoerse.bz Pro Member
    Registriert seit
    28.09.14
    Beiträge
    1.293
    Bedankt
    0
    Danke erhalten: 536

    Das Wunder von Bern Das Spiel 2004 German AC3 1080p HDTV x264 - iND



    Das Wunder von Bern Das Spiel 2004 German AC3 1080p HDTV x264 - iND

    Das Spiel Von dem legendären Endspiel um die Fußballweltmeisterschaft 1954 existierten bislang nur 15 Minuten Bewegtmaterial. Noch nie wurden weitere Teile dieses Sensationserfolgs rekonstruiert. Bis zum Jahr 2004. Nach aufwendigen, weltweiten Archivrecherchen ist es erstmalig gelungen, 40 Minuten dieses packenden Endspiels - im Doppelpass mit der legendären Radio-Übertragung von Reporter Herbert Zimmermann - zu präsentieren. Erstmalig sind alle fünf Tore in Farbe zu sehen. Das packende und hochemotionale Finale schrieb Fussballgeschichte: Die Sportbegeisterten können die sensationelle Aufholjagd der Deutschen nach der 2:0-Führung von Ungarn miterleben. Mit dem Höhepunkt der deutschen Fussballhistorie, dem unglaublichen 3:2 in der 84. Spielminute aus fünf Perspektiven, gewinnt das legendäre "Tor, Tor, Tor!!!" von Fussballreporter Herbert Zimmermann an bisher unübertroffener Dramatik

    Kurzinfo:
    Video: 9 853 kb/s, High L4, 25.000 FPS
    Auflösung: 1920x1080, 16:9
    Audio: Deutsch AC3 5.1 384 kb/s

    Media-Info:
    Code:
    General
    Unique ID                   : 87976400394371165039434529859935719604 (0x422FA36DA6AA5DA5786AD5335A20D0B4)
    Complete name               : Das Wunder von Bern - Das Spiel
    reb.leips\Das Wunder von Bern - Das Spiel.mkv
    Format                      : Matroska
    Format version              : Version 4 / Version 2
    File size                   : 2.61 GiB
    Duration                    : 37 min 52 s
    Overall bit rate            : 9 853 kb/s
    Encoded date                : UTC 2018-06-02 05:36:36
    Writing application         : mkvmerge v21.0.0 ('Tardigrades Will Inherit The Earth') 64-bit
    Writing library             : libebml v1.3.5 + libmatroska v1.4.8
    
    Video
    ID                          : 1
    Format                      : AVC
    Format/Info                 : Advanced Video Codec
    Format profile              : [email protected]
    Format settings             : CABAC / 4 Ref Frames
    Format settings, CABAC      : Yes
    Format settings, ReFrames   : 4 frames
    Codec ID                    : V_MPEG4/ISO/AVC
    Duration                    : 37 min 52 s
    Bit rate                    : 9 467 kb/s
    Width                       : 1 920 pixels
    Height                      : 1 080 pixels
    Display aspect ratio        : 16:9
    Frame rate mode             : Constant
    Frame rate                  : 25.000 FPS
    Standard                    : Component
    Color space                 : YUV
    Chroma subsampling          : 4:2:0
    Bit depth                   : 8 bits
    Scan type                   : Interlaced
    Scan type, store method     : Separated fields
    Scan order                  : Top Field First
    Bits/(Pixel*Frame)          : 0.183
    Stream size                 : 2.50 GiB (96%)
    Default                     : Yes
    Forced                      : No
    Color range                 : Limited
    Color primaries             : BT.709
    Transfer characteristics    : BT.709
    Matrix coefficients         : BT.709
    
    Audio
    ID                          : 2
    Format                      : AC-3
    Format/Info                 : Audio Coding 3
    Codec ID                    : A_AC3
    Duration                    : 37 min 52 s
    Bit rate mode               : Constant
    Bit rate                    : 384 kb/s
    Channel(s)                  : 6 channels
    Channel positions           : Front: L C R, Side: L R, LFE
    Sampling rate               : 48.0 kHz
    Frame rate                  : 31.250 FPS (1536 SPF)
    Bit depth                   : 16 bits
    Compression mode            : Lossy
    Stream size                 : 104 MiB (4%)
    Service kind                : Complete Main
    Default                     : Yes
    Forced                      : No
    
    Menu


    Dauer: 45 Min | Format: mkv | Größe: 2,69 GB

    Download Share-online.biz:

    # Mirror 1 Uploaded.net:

    Passwort:
    movie-blog.org

  2. Folgende Benutzer haben sich bei flossZ für diesen Beitrag bedankt:

    papakosmas (04.06.18)

  3. #Free Download
    Power Free Uploader
    Registriert seit
    16.07.2014
    Beiträge
    2417
     

Berechtigungen

  • Neue Themen erstellen: Nein
  • Themen beantworten: Nein
  • Anhänge hochladen: Nein
  • Beiträge bearbeiten: Nein
  •