Votet für MyBoerse.bz
Topliste

Ergebnis 1 bis 1 von 1

Thema: Das Wunder von Bern Die wahre Geschichte 2004 German AC3 1080p HDTV x264 - iND

  1. #1
    MyBoerse.bz Pro Member
    Registriert seit
    28.09.14
    Beiträge
    1.299
    Bedankt
    0
    Danke erhalten: 536

    Das Wunder von Bern Die wahre Geschichte 2004 German AC3 1080p HDTV x264 - iND



    Das Wunder von Bern Die wahre Geschichte 2004 German AC3 1080p HDTV x264 - iND

    Kaum ein Sportereignis hat in Deutschland jemals mehr Begeisterung hervorgerufen als der Sieg gegen die als unschlagbar geltenden Ungarn bei der Fußball-Weltmeisterschaft 1954 in der Schweiz. Das »Wir-sind-wieder-wer«-Gefühl befreite die deutsche Gesellschaft aus der Nachkriegstristesse und erzeugte eine noch nie dagewesene Aufbruchstimmung. Verf. stellen die zeitgeschichtlichen Hintergründe und deren Bedeutung für Deutschland und Ungarn heraus. Auf der Grundlage der Auswertungen von bislang verschollen geglaubtem Material sowie zahlreicher Interviews mit den beteiligten Spielern, Augenzeugen, Politikern, Prominenten, Historikern und Publizisten zeichnen Verf. ein exaktes und vielschichtiges Porträt der damaligen Ereignisse. Aufgrund des außergewöhnlichen Materials wurde der Ablauf des Endspiels fast vollständig rekonstruiert. Darüber hinaus wird ein Einblick in bislang wenig bekannte Aspekte der Biografien der sog. Helden von Bern gegeben.

    Kurzinfo:
    Video: 10.8 Mb/s, High L4, 25.000 FPS
    Auflösung: 1920x1080, 16:9
    Audio 1: Deutsch AC3 5.1 384 kb/s
    Audio 2: Deutsch AC3 2.0 448 kb/s

    Media-Info:
    Code:
    General
    Unique ID                   : 172708926892018336774056852083246899457 (0x81EE8786864BCD4FA672EA349F042101)
    Complete name               : Das Wunder von Bern - Die wahre Geschichte
    reb.ethcihcseg\Das Wunder von Bern - Die wahre Geschichte.mkv
    Format                      : Matroska
    Format version              : Version 4 / Version 2
    File size                   : 6.72 GiB
    Duration                    : 1 h 29 min
    Overall bit rate            : 10.8 Mb/s
    Encoded date                : UTC 2018-06-02 05:37:39
    Writing application         : mkvmerge v21.0.0 ('Tardigrades Will Inherit The Earth') 64-bit
    Writing library             : libebml v1.3.5 + libmatroska v1.4.8
    
    Video
    ID                          : 1
    Format                      : AVC
    Format/Info                 : Advanced Video Codec
    Format profile              : [email protected]
    Format settings             : CABAC / 4 Ref Frames
    Format settings, CABAC      : Yes
    Format settings, ReFrames   : 4 frames
    Format settings, GOP        : M=4, N=24
    Codec ID                    : V_MPEG4/ISO/AVC
    Duration                    : 1 h 29 min
    Bit rate                    : 9 920 kb/s
    Width                       : 1 920 pixels
    Height                      : 1 080 pixels
    Display aspect ratio        : 16:9
    Frame rate mode             : Constant
    Frame rate                  : 25.000 FPS
    Standard                    : Component
    Color space                 : YUV
    Chroma subsampling          : 4:2:0
    Bit depth                   : 8 bits
    Scan type                   : Interlaced
    Scan type, store method     : Separated fields
    Scan order                  : Top Field First
    Bits/(Pixel*Frame)          : 0.191
    Stream size                 : 6.20 GiB (92%)
    Default                     : Yes
    Forced                      : No
    Color range                 : Limited
    Color primaries             : BT.709
    Transfer characteristics    : BT.709
    Matrix coefficients         : BT.709
    
    Audio #1
    ID                          : 2
    Format                      : AC-3
    Format/Info                 : Audio Coding 3
    Codec ID                    : A_AC3
    Duration                    : 1 h 29 min
    Bit rate mode               : Constant
    Bit rate                    : 384 kb/s
    Channel(s)                  : 6 channels
    Channel positions           : Front: L C R, Side: L R, LFE
    Sampling rate               : 48.0 kHz
    Frame rate                  : 31.250 FPS (1536 SPF)
    Bit depth                   : 16 bits
    Compression mode            : Lossy
    Stream size                 : 246 MiB (4%)
    Service kind                : Complete Main
    Default                     : Yes
    Forced                      : No
    
    Audio #2
    ID                          : 3
    Format                      : AC-3
    Format/Info                 : Audio Coding 3
    Codec ID                    : A_AC3
    Duration                    : 1 h 29 min
    Bit rate mode               : Constant
    Bit rate                    : 448 kb/s
    Channel(s)                  : 2 channels
    Channel positions           : Front: L R
    Sampling rate               : 48.0 kHz
    Frame rate                  : 31.250 FPS (1536 SPF)
    Bit depth                   : 16 bits
    Compression mode            : Lossy
    Stream size                 : 287 MiB (4%)
    Service kind                : Complete Main
    Default                     : No
    Forced                      : No


    Dauer: 90 Min | Format: mkv | Größe: 6,92 GB

    Download Share-online.biz:

    # Mirror 1 Uploaded.net:

    Passwort:
    movie-blog.org

  2. Folgende Benutzer haben sich bei flossZ für diesen Beitrag bedankt:

    papakosmas (04.06.18)

  3. #Free Download
     

Berechtigungen

  • Neue Themen erstellen: Nein
  • Themen beantworten: Nein
  • Anhänge hochladen: Nein
  • Beiträge bearbeiten: Nein
  •