Ergebnis 1 bis 1 von 1

Thema: Superstars des Fußballs Rivalen auf dem Rasen 2018 German DL 1080p HDTV x264 - iND

  1. #1
    MyBoerse.bz Pro Member
    Registriert seit
    28.09.14
    Beiträge
    1.423
    Bedankt
    0
    Danke erhalten: 585

    Superstars des Fußballs Rivalen auf dem Rasen 2018 German DL 1080p HDTV x264 - iND



    Superstars des Fußballs Rivalen auf dem Rasen 2018 German DL 1080p HDTV x264 - iND

    In den 5 Episoden diskutiert und analysiert ein Expertengremium über die Leistungen und Fähigkeiten der weltbesten Spieler, um ein für alle Mal zu entscheiden, wer der beste Fußballer aller Zeiten ist. Das Expertenteam besteht aus Fußballgrößen wie Gary Lineker, Gianfranco Zola, Lothar Matthäus und Ryan Giggs.

    5 Teile:
    01 Ronaldo vs. Messi
    02 Pele vs. Maradonna
    03 Zidane vs. Platini
    04 Beckham vs. Bale
    05 Van Basten vs. Klinsmann

    Kurzinfo:
    Video: 7 694 kb/s, High L4, 25.000 FPS
    Auflösung: 1920x1080, 16:9
    Audio 1: Deutsch AC3 5.1 384 kb/s
    Audio 2: Englisch AC3 2.0 192 kb/s

    Media-Info:
    Code:
    Unique ID                   : 57661201074777827183978084761046908236 (0x2B6124B46A6A05541D902AB246C87D4C)
    Complete name               : 01 Ronaldo vs. Messi.mkv
    Format                      : Matroska
    Format version              : Version 4 / Version 2
    File size                   : 1.18 GiB
    Duration                    : 21 min 54 s
    Overall bit rate            : 7 694 kb/s
    Encoded date                : UTC 2018-06-02 09:26:54
    Writing application         : mkvmerge v21.0.0 ('Tardigrades Will Inherit The Earth') 64-bit
    Writing library             : libebml v1.3.5 + libmatroska v1.4.8
    
    Video
    ID                          : 1
    Format                      : AVC
    Format/Info                 : Advanced Video Codec
    Format profile              : [email protected]
    Format settings             : CABAC / 4 Ref Frames
    Format settings, CABAC      : Yes
    Format settings, ReFrames   : 4 frames
    Codec ID                    : V_MPEG4/ISO/AVC
    Duration                    : 21 min 54 s
    Bit rate                    : 7 116 kb/s
    Width                       : 1 920 pixels
    Height                      : 1 080 pixels
    Display aspect ratio        : 16:9
    Frame rate mode             : Constant
    Frame rate                  : 25.000 FPS
    Standard                    : Component
    Color space                 : YUV
    Chroma subsampling          : 4:2:0
    Bit depth                   : 8 bits
    Scan type                   : Interlaced
    Scan type, store method     : Separated fields
    Scan order                  : Top Field First
    Bits/(Pixel*Frame)          : 0.137
    Stream size                 : 1.09 GiB (92%)
    Default                     : Yes
    Forced                      : No
    Color range                 : Limited
    Color primaries             : BT.709
    Transfer characteristics    : BT.709
    Matrix coefficients         : BT.709
    
    Audio #1
    ID                          : 2
    Format                      : AC-3
    Format/Info                 : Audio Coding 3
    Codec ID                    : A_AC3
    Duration                    : 21 min 54 s
    Bit rate mode               : Constant
    Bit rate                    : 384 kb/s
    Channel(s)                  : 6 channels
    Channel positions           : Front: L C R, Side: L R, LFE
    Sampling rate               : 48.0 kHz
    Frame rate                  : 31.250 FPS (1536 SPF)
    Bit depth                   : 16 bits
    Compression mode            : Lossy
    Stream size                 : 60.2 MiB (5%)
    Service kind                : Complete Main
    Default                     : Yes
    Forced                      : No
    
    Audio #2
    ID                          : 3
    Format                      : AC-3
    Format/Info                 : Audio Coding 3
    Codec ID                    : A_AC3
    Duration                    : 21 min 54 s
    Bit rate mode               : Constant
    Bit rate                    : 192 kb/s
    Channel(s)                  : 2 channels
    Channel positions           : Front: L R
    Sampling rate               : 48.0 kHz
    Frame rate                  : 31.250 FPS (1536 SPF)
    Bit depth                   : 16 bits
    Compression mode            : Lossy
    Stream size                 : 30.1 MiB (2%)
    Service kind                : Complete Main
    Default                     : No
    Forced                      : No


    Dauer: 112 Min | Format: mkv | Größe: 5,61 GB

    Download Share-online.biz:

    # Mirror 1 Uploaded.net:

    Passwort:
    movie-blog.org

  2. Folgende Benutzer haben sich bei flossZ für diesen Beitrag bedankt:

    papakosmas (04.06.18)

  3. #Free Download
     

Berechtigungen

  • Neue Themen erstellen: Nein
  • Themen beantworten: Nein
  • Anhänge hochladen: Nein
  • Beiträge bearbeiten: Nein
  •