Votet für MyBoerse.bz
Topliste

Ergebnis 1 bis 1 von 1

Thema: Wir Weltmeister Ein Fußballmärchen 2006 German AC3 1080p HDTV x264 - iND

  1. #1
    MyBoerse.bz Pro Member
    Registriert seit
    28.09.14
    Beiträge
    1.293
    Bedankt
    0
    Danke erhalten: 536

    Wir Weltmeister Ein Fußballmärchen 2006 German AC3 1080p HDTV x264 - iND



    Wir Weltmeister Ein Fußballmärchen 2006 German AC3 1080p HDTV x264 - iND

    Max (Jens Atzorn) und Anna (Aline Hochscheid) lernen sich als Kinder am 4. Juli 1954 in Mecklenburg kennen und lieben. Es ist der Tag, an dem die deutsche Elf in Bern sensationell Fußballweltmeister wird. Durch die Flucht mit seiner Familie in den Westen wird Max jedoch von seiner Freundin getrennt. Fortan will er seine Anna aber unbedingt wiedersehen, denn er glaubt fest an ein kosmisches Fußballgesetz: Die deutsche Nationalmannschaft kann nur eine WM gewinnen, wenn er mit Anna zusammen ist. In dokumentarischen Einschüben kommen die großen Fußballstars von Seeler und Beckenbauer bis Klinsmann selber zu Wort und erzählen packend über ihre Niederlagen und Erfolge bei den großen Turnieren. Was sie nicht wissen: Ihre Spielkunst hing nicht von Taktik, Kondition und Laktatwerten ab, sondern von den romantischen Anwandlungen eines Fußballverrückten, der versuchte, den eisernen Vorhang zu überwinden. Liebe und Fußball sind die wahren Leidenschaften des Lebens. In einem mitreißenden Doku-Spiel entsteht ein Kaleidoskop emotionaler Fußballhistorie: Verwoben mit einer fiktionalen deutsch-deutschen Liebesgeschichte zeigt "Wir Weltmeister" mit seltenem Archivmaterial und hochkarätigen Zeitzeugen die großartigsten Momente deutscher Fußball-WM-Historie. Ein Stoff zum Träumen.

    Kurzinfo:
    Video: 7 694 kb/s, High L4, 25.000 FPS
    Auflösung: 1920x1080, 16:9
    Audio 1: Deutsch AC3 5.1 384 kb/s
    Audio 2: Deutsch AC3 2.0 448 kb/s

    Media-Info:
    Code:
    General
    Unique ID                   : 248435594318149517723158297004126561806 (0xBAE6F47D2ABE665D259EB5431984E60E)
    Complete name               : Wir Weltmeister - Ein Fußballmärchen
    iw.retsiemtlew\Wir Weltmeister - Ein Fußballmärchen.mkv
    Format                      : Matroska
    Format version              : Version 4 / Version 2
    File size                   : 7.56 GiB
    Duration                    : 1 h 29 min
    Overall bit rate            : 12.0 Mb/s
    Encoded date                : UTC 2018-06-02 11:17:30
    Writing application         : mkvmerge v21.0.0 ('Tardigrades Will Inherit The Earth') 64-bit
    Writing library             : libebml v1.3.5 + libmatroska v1.4.8
    
    Video
    ID                          : 1
    Format                      : AVC
    Format/Info                 : Advanced Video Codec
    Format profile              : [email protected]
    Format settings             : CABAC / 4 Ref Frames
    Format settings, CABAC      : Yes
    Format settings, ReFrames   : 4 frames
    Format settings, GOP        : M=4, N=24
    Codec ID                    : V_MPEG4/ISO/AVC
    Duration                    : 1 h 29 min
    Bit rate                    : 11.2 Mb/s
    Width                       : 1 920 pixels
    Height                      : 1 080 pixels
    Display aspect ratio        : 16:9
    Frame rate mode             : Constant
    Frame rate                  : 25.000 FPS
    Standard                    : Component
    Color space                 : YUV
    Chroma subsampling          : 4:2:0
    Bit depth                   : 8 bits
    Scan type                   : Interlaced
    Scan type, store method     : Separated fields
    Scan order                  : Top Field First
    Bits/(Pixel*Frame)          : 0.216
    Stream size                 : 7.03 GiB (93%)
    Default                     : Yes
    Forced                      : No
    Color range                 : Limited
    Color primaries             : BT.709
    Transfer characteristics    : BT.709
    Matrix coefficients         : BT.709
    
    Audio #1
    ID                          : 2
    Format                      : AC-3
    Format/Info                 : Audio Coding 3
    Codec ID                    : A_AC3
    Duration                    : 1 h 29 min
    Bit rate mode               : Constant
    Bit rate                    : 384 kb/s
    Channel(s)                  : 6 channels
    Channel positions           : Front: L C R, Side: L R, LFE
    Sampling rate               : 48.0 kHz
    Frame rate                  : 31.250 FPS (1536 SPF)
    Bit depth                   : 16 bits
    Compression mode            : Lossy
    Stream size                 : 247 MiB (3%)
    Service kind                : Complete Main
    Default                     : Yes
    Forced                      : No
    
    Audio #2
    ID                          : 3
    Format                      : AC-3
    Format/Info                 : Audio Coding 3
    Codec ID                    : A_AC3
    Duration                    : 1 h 29 min
    Bit rate mode               : Constant
    Bit rate                    : 448 kb/s
    Channel(s)                  : 2 channels
    Channel positions           : Front: L R
    Sampling rate               : 48.0 kHz
    Frame rate                  : 31.250 FPS (1536 SPF)
    Bit depth                   : 16 bits
    Compression mode            : Lossy
    Stream size                 : 288 MiB (4%)
    Service kind                : Complete Main
    Default                     : No
    Forced                      : No


    Dauer: 90 Min | Format: mkv | Größe: 7,79 GB

    Download Share-online.biz:

    # Mirror 1 Uploaded.net:

    Passwort:
    movie-blog.org

  2. Folgende Benutzer haben sich bei flossZ für diesen Beitrag bedankt:

    papakosmas (04.06.18)

  3. #Free Download
     

Berechtigungen

  • Neue Themen erstellen: Nein
  • Themen beantworten: Nein
  • Anhänge hochladen: Nein
  • Beiträge bearbeiten: Nein
  •