Votet für MyBoerse.bz
Topliste

Ergebnis 1 bis 1 von 1

Thema: Harry und Meghan Die Traumhochzeit Live 2018 German AC3 720p HDTV x264 - iND

  1. #1
    MyBoerse.bz Pro Member
    Registriert seit
    28.09.14
    Beiträge
    1.299
    Bedankt
    0
    Danke erhalten: 536

    Harry und Meghan Die Traumhochzeit Live 2018 German AC3 720p HDTV x264 - iND



    Harry und Meghan Die Traumhochzeit Live 2018 German AC3 720p HDTV x264 - iND

    Es ist die royale Traumhochzeit des Jahres: Prinz Harry und Meghan Markle geben sich das Ja-Wort. Die Trauung fand in der St.-George's-Kapelle auf dem Gelände von Schloss Windsor statt. Das ZDF hat die Feierlichkeiten live in voller Länge übertragen. Es hat alles angefangen wie im Märchen: Harry, der Party-Prinz und Meghan Markle, die Schauspielerin. Seit 2016 sind die beiden offiziell ein Paar, verliebt hatte sich Harry aber schon zwei Jahre zuvor in die brünette Schönheit. Der kannte die Schauspielerin mit afro-amerikanischen Wurzeln aus der TV-Serie „Suits“, in der sie Rachel Zane verkörperte. Harry hatte ein Freund, der von Harrys Schwärmerei wusste, ein Treffen mit den beiden eingefädelt. Und so wurden Meghan, Harry und noch ein paar andere Freunde im Sommer 2016 zu einer lockeren Runde in das Londoner Soho House eingeladen. Die beiden verstanden sich auf Anhieb sehr gut - der Rest ist Geschichte. Jetzt wurde geheiratet.

    Kurzinfo:
    Video: 4 452 kb/ss, High L4.1, 25.000 FPS
    Auflösung: 1280x720, 16:9
    Audio: German AC3 2.0 444 kb/s

    Media-Info:
    Code:
    General
    Unique ID                   : 214639580527971897070702387634972136564 (0xA17A145CAA34B480F13ABC083C1C1474)
    Complete name               : C:\Users\admin\Desktop\Harry und Meghan Die Traumhochzeit\yrrah.dnu.nahgem\Harry und Meghan Die Traumhochzeit Live.mkv
    Format                      : Matroska
    Format version              : Version 4 / Version 2
    File size                   : 7.43 GiB
    Duration                    : 3 h 59 min
    Overall bit rate            : 4 452 kb/s
    Encoded date                : UTC 2018-05-19T13:27:18Z
    Writing application         : HandBrake 1.1.0 2018040700
    Writing library             : Lavf57.7.2
    
    Video
    ID                          : 1
    Format                      : AVC
    Format/Info                 : Advanced Video Codec
    Format profile              : [email protected]
    Format settings             : CABAC / 4 Ref Frames
    Format settings, CABAC      : Yes
    Format settings, ReFrames   : 4 frames
    Codec ID                    : V_MPEG4/ISO/AVC
    Duration                    : 3 h 59 min
    Bit rate                    : 4 000 kb/s
    Width                       : 1 280 pixels
    Height                      : 720 pixels
    Display aspect ratio        : 16:9
    Frame rate mode             : Constant
    Frame rate                  : 25.000 FPS
    Color space                 : YUV
    Chroma subsampling          : 4:2:0
    Bit depth                   : 8 bits
    Scan type                   : Progressive
    Bits/(Pixel*Frame)          : 0.174
    Stream size                 : 6.54 GiB (88%)
    Writing library             : x264 core 155 r2893 b00bcaf
    Encoding settings           : cabac=1 / ref=2 / deblock=1:0:0 / analyse=0x3:0x113 / me=hex / subme=6 / psy=1 / psy_rd=1.00:0.00 / mixed_ref=1 / me_range=16 / chroma_me=1 / trellis=1 / 8x8dct=1 / cqm=0 / deadzone=21,11 / fast_pskip=1 / chroma_qp_offset=-2 / threads=18 / lookahead_threads=3 / sliced_threads=0 / nr=0 / decimate=1 / interlaced=0 / bluray_compat=0 / constrained_intra=0 / bframes=3 / b_pyramid=2 / b_adapt=1 / b_bias=0 / direct=1 / weightb=1 / open_gop=0 / weightp=1 / keyint=250 / keyint_min=25 / scenecut=40 / intra_refresh=0 / rc_lookahead=30 / rc=abr / mbtree=1 / bitrate=4000 / ratetol=1.0 / qcomp=0.60 / qpmin=0 / qpmax=69 / qpstep=4 / vbv_maxrate=62500 / vbv_bufsize=78125 / nal_hrd=none / filler=0 / ip_ratio=1.40 / aq=1:1.00
    Default                     : Yes
    Forced                      : No
    Color range                 : Limited
    Color primaries             : BT.709
    Transfer characteristics    : BT.709
    Matrix coefficients         : BT.709
    
    Audio
    ID                          : 2
    Format                      : AC-3
    Format/Info                 : Audio Coding 3
    Codec ID                    : A_AC3
    Duration                    : 3 h 59 min
    Bit rate mode               : Constant
    Bit rate                    : 448 kb/s
    Channel(s)                  : 2 channels
    Channel positions           : Front: L R
    Sampling rate               : 48.0 kHz
    Frame rate                  : 31.250 FPS (1536 SPF)
    Bit depth                   : 16 bits
    Compression mode            : Lossy
    Stream size                 : 766 MiB (10%)
    Title                       : Stereo
    Service kind                : Complete Main
    Default                     : Yes
    Forced                      : No


    Dauer: 239 Min | Format: mkv | Größe: 7,67 GB

    Download Share-online.biz:

    # Mirror 1 Uploaded.net:

    Passwort:
    movie-blog.org

  2. #Free Download
     

Berechtigungen

  • Neue Themen erstellen: Nein
  • Themen beantworten: Nein
  • Anhänge hochladen: Nein
  • Beiträge bearbeiten: Nein
  •