Ergebnis 1 bis 1 von 1

Thema: Kimi no Na wa Your Name Gestern heute und für immer German 2016 AC3 DL 720p BluRay x264 - AST4u

  1. #1
    100% Anime Avatar von ClipperSunny
    Registriert seit
    15.09.17
    Beiträge
    1.325
    Bedankt
    1
    Danke erhalten: 194

    Kimi no Na wa Your Name Gestern heute und für immer German 2016 AC3 DL 720p BluRay x264 - AST4u

    Kimi no Na wa.
    Your Name. Gestern, heute und für immer
    Your Name.


    Your Name. Gestern, heute und für immer German 2016 AC3 DL 720p BluRay x264 - AST4u

    Animeinformationen
    Kurzbeschreibung by AniSearch.de
    Die Geschichte dreht sich um Mitsuha und Taki. Mitsuha lebt mit ihrer kleinen Schwester bei ihrer Großmutter in einer kleinen, ländlichen Stadt, die von Bergen umgeben ist. Sie ist ein sehr ehrliches Mädchen, aber sie findet weder Gefallen an den Bräuchen des Familienschreins, noch an dem Wahlkampf, an dem ihr Vater teilnimmt. Stattdessen beklagt sie sich über die ländliche Lebensweise und sehnt sich nach einem Leben in Tokyo. Taki dagegen lebt in Tokyo, verbringt viel Zeit mit seinen Freunden und arbeitet nebenbei in einem italienischen Restaurant. Außerdem interessiert er sich sehr für Architektur und bildende Kunst. Eines Tages jedoch hat Mitsuha einen Traum, in dem sie sich als Junge wiederfindet. Taki hat genau denselben Traum, findet sich aber als Mädchen in einer Stadt in den Bergen wieder, wo er noch nie zuvor war. Was ist das Geheimnis ihrer Träume und ihrer persönlichen Erfahrungen? Anmerkung: Vor dem regulären japanischen Kinostart am 26.08.2016 wurde der Film auf der Anime Expo (Los Angeles) gezeigt.


    Studio: CoMix Wave Films
    Genre: Sentimentales Drama
    Nebengenre: Alltagsleben, Drama, Komödie, Mystery, Romanze
    Spieldauer: 110 Min.
    Jahr: 2016

    Releaseinformationen
    Episoden: 1 / 1
    Sprache:
    Deutsch, Japanisch
    Untertitel: Deutsch
    Publisher: Universum Anime
    Release-Gruppe: AST4u
    Quelle: BluRay
    Format: MKV
    Video-Codec: x264
    Farbtiefe: 8bit
    Audio-Codec: AC3
    Audio-Kanäle: GER AC3 5.1 | JAP AC3 5.1
    Auflösung: 720p
    Größe: 2.62 GB
    Hoster: Share-Online.biz

    Mediainfo

    Code:
    General
    Complete name                            : Your.Name.Gestern.heute.und.für.mmer.German.AC3.DL.720p.BluRay.x264-AST4u
    Format                                   : Matroska
    Format version                           : Version 4 / Version 2
    File size                                : 2.62 GiB
    Duration                                 : 1 h 46 min
    Overall bit rate                         : 3 511 kb/s
    Encoded date                             : UTC 2018-05-17 21:22:00
    Writing application                      : mkvmerge v8.8.0 ('Wind at my back') 64bit
    Writing library                          : libebml v1.3.3 + libmatroska v1.4.4
    
    Video
    ID                                       : 1
    Format                                   : AVC
    Format/Info                              : Advanced Video Codec
    Format profile                           : [email protected]
    Format settings                          : CABAC / 6 Ref Frames
    Format settings, CABAC                   : Yes
    Format settings, ReFrames                : 6 frames
    Codec ID                                 : V_MPEG4/ISO/AVC
    Duration                                 : 1 h 46 min
    Bit rate                                 : 2 602 kb/s
    Width                                    : 1 280 pixels
    Height                                   : 720 pixels
    Display aspect ratio                     : 16:9
    Frame rate mode                          : Constant
    Frame rate                               : 24.000 FPS
    Color space                              : YUV
    Chroma subsampling                       : 4:2:0
    Bit depth                                : 8 bits
    Scan type                                : Progressive
    Bits/(Pixel*Frame)                       : 0.118
    Stream size                              : 1.94 GiB (74%)
    Writing library                          : x264 core 148 r2638 7599210
    Encoding settings                        : cabac=1 / ref=6 / deblock=1:1:1 / analyse=0x3:0x113 / me=hex / subme=9 / psy=1 / psy_rd=0.40:0.00 / mixed_ref=1 / me_range=16 / chroma_me=1 / trellis=1 / 8x8dct=1 / cqm=0 / deadzone=21,11 / fast_pskip=1 / chroma_qp_offset=-2 / threads=12 / lookahead_threads=1 / sliced_threads=0 / nr=0 / decimate=1 / interlaced=0 / bluray_compat=0 / constrained_intra=0 / bframes=5 / b_pyramid=2 / b_adapt=1 / b_bias=0 / direct=1 / weightb=1 / open_gop=0 / weightp=2 / keyint=240 / keyint_min=24 / scenecut=40 / intra_refresh=0 / rc_lookahead=40 / rc=crf / mbtree=1 / crf=16.0 / qcomp=0.60 / qpmin=0 / qpmax=69 / qpstep=4 / vbv_maxrate=62500 / vbv_bufsize=78125 / crf_max=0.0 / nal_hrd=none / filler=0 / ip_ratio=1.40 / aq=1:0.60
    Default                                  : Yes
    Forced                                   : No
    
    Audio #1
    ID                                       : 2
    Format                                   : AC-3
    Format/Info                              : Audio Coding 3
    Codec ID                                 : A_AC3
    Duration                                 : 1 h 46 min
    Bit rate mode                            : Constant
    Bit rate                                 : 448 kb/s
    Channel(s)                               : 6 channels
    Channel positions                        : Front: L C R, Side: L R, LFE
    Sampling rate                            : 48.0 kHz
    Frame rate                               : 31.250 FPS (1536 SPF)
    Bit depth                                : 16 bits
    Compression mode                         : Lossy
    Stream size                              : 342 MiB (13%)
    Language                                 : German
    Service kind                             : Complete Main
    Default                                  : Yes
    Forced                                   : No
    
    Audio #2
    ID                                       : 3
    Format                                   : AC-3
    Format/Info                              : Audio Coding 3
    Codec ID                                 : A_AC3
    Duration                                 : 1 h 46 min
    Bit rate mode                            : Constant
    Bit rate                                 : 448 kb/s
    Channel(s)                               : 6 channels
    Channel positions                        : Front: L C R, Side: L R, LFE
    Sampling rate                            : 48.0 kHz
    Frame rate                               : 31.250 FPS (1536 SPF)
    Bit depth                                : 16 bits
    Compression mode                         : Lossy
    Stream size                              : 342 MiB (13%)
    Language                                 : German
    Service kind                             : Complete Main
    Default                                  : No
    Forced                                   : No
    
    Text #1
    ID                                       : 4
    Format                                   : PGS
    Muxing mode                              : zlib
    Codec ID                                 : S_HDMV/PGS
    Codec ID/Info                            : Picture based subtitle format used on BDs/HD-DVDs
    Duration                                 : 1 h 45 min
    Bit rate                                 : 10.6 kb/s
    Count of elements                        : 2399
    Stream size                              : 7.99 MiB (0%)
    Default                                  : Yes
    Forced                                   : No
    
    Text #2
    ID                                       : 5
    Format                                   : PGS
    Muxing mode                              : zlib
    Codec ID                                 : S_HDMV/PGS
    Codec ID/Info                            : Picture based subtitle format used on BDs/HD-DVDs
    Duration                                 : 1 h 29 min
    Bit rate                                 : 275 b/s
    Count of elements                        : 60
    Stream size                              : 180 KiB (0%)
    Default                                  : No
    Forced                                   : No

    ##################################################
    Download

    Filecrypt.cc


    Relink.to


    Passwort: bySunny
    ##################################################

  2. Folgende Benutzer haben sich bei ClipperSunny für diesen Beitrag bedankt:

    Dyoga (22.05.18)

  3. #Free Download
     

Berechtigungen

  • Neue Themen erstellen: Nein
  • Themen beantworten: Nein
  • Anhänge hochladen: Nein
  • Beiträge bearbeiten: Nein
  •