Ergebnis 1 bis 1 von 1

Thema: Kimi no Na wa Your Name Gestern heute und für immer German 2016 MP3 DL 408p BluRay XviD - AST4u

  1. #1
    100% Anime Avatar von ClipperSunny
    Registriert seit
    15.09.17
    Beiträge
    1.325
    Bedankt
    1
    Danke erhalten: 194

    Kimi no Na wa Your Name Gestern heute und für immer German 2016 MP3 DL 408p BluRay XviD - AST4u

    Kimi no Na wa.
    Your Name. Gestern, heute und für immer
    Your Name.


    Your Name. Gestern, heute und für immer German 2016 MP3 DL 408p BluRay XviD - AST4u

    Animeinformationen
    Kurzbeschreibung by AniSearch.de
    Die Geschichte dreht sich um Mitsuha und Taki. Mitsuha lebt mit ihrer kleinen Schwester bei ihrer Großmutter in einer kleinen, ländlichen Stadt, die von Bergen umgeben ist. Sie ist ein sehr ehrliches Mädchen, aber sie findet weder Gefallen an den Bräuchen des Familienschreins, noch an dem Wahlkampf, an dem ihr Vater teilnimmt. Stattdessen beklagt sie sich über die ländliche Lebensweise und sehnt sich nach einem Leben in Tokyo. Taki dagegen lebt in Tokyo, verbringt viel Zeit mit seinen Freunden und arbeitet nebenbei in einem italienischen Restaurant. Außerdem interessiert er sich sehr für Architektur und bildende Kunst. Eines Tages jedoch hat Mitsuha einen Traum, in dem sie sich als Junge wiederfindet. Taki hat genau denselben Traum, findet sich aber als Mädchen in einer Stadt in den Bergen wieder, wo er noch nie zuvor war. Was ist das Geheimnis ihrer Träume und ihrer persönlichen Erfahrungen? Anmerkung: Vor dem regulären japanischen Kinostart am 26.08.2016 wurde der Film auf der Anime Expo (Los Angeles) gezeigt.


    Studio: CoMix Wave Films
    Genre: Sentimentales Drama
    Nebengenre: Alltagsleben, Drama, Komödie, Mystery, Romanze
    Spieldauer: 110 Min.
    Jahr: 2016

    Releaseinformationen
    Episoden: 1 / 1
    Sprache:
    Deutsch, Japanisch
    Untertitel: Deutsch
    Publisher: Universum Anime
    Release-Gruppe: AST4u
    Quelle: BluRay
    Format: AVI
    Video-Codec: XviD
    Farbtiefe: 8bit
    Audio-Codec: MP3
    Audio-Kanäle: GER MP3 2.0 | JAP MP3 2.0
    Auflösung: 408p
    Größe: 1.28 GB
    Hoster: Share-Online.biz

    Mediainfo

    Code:
    General
    Complete name                            : Your.Name.Gestern.heute.und.für.mmer.German.MP3.DL.BluRay.xvd-AST4u
    Format                                   : Matroska
    Format version                           : Version 4 / Version 2
    File size                                : 1.28 GiB
    Duration                                 : 1 h 46 min
    Overall bit rate                         : 1 713 kb/s
    Encoded date                             : UTC 2018-05-17 22:56:21
    Writing application                      : mkvmerge v8.8.0 ('Wind at my back') 64bit
    Writing library                          : libebml v1.3.3 + libmatroska v1.4.4
    FileExtension_Invalid                    : mkv mk3d mka mks
    
    Video
    ID                                       : 1
    Format                                   : MPEG-4 Visual
    Format profile                           : Advanced [email protected]
    Format settings                          : BVOP2
    Format settings, BVOP                    : 2
    Format settings, QPel                    : No
    Format settings, GMC                     : No warppoints
    Format settings, Matrix                  : Default (MPEG)
    Codec ID                                 : V_MS/VFW/FOURCC / XVID
    Codec ID/Hint                            : XviD
    Duration                                 : 1 h 46 min
    Bit rate                                 : 1 317 kb/s
    Width                                    : 720 pixels
    Height                                   : 408 pixels
    Display aspect ratio                     : 16:9
    Frame rate mode                          : Constant
    Frame rate                               : 24.000 FPS
    Color space                              : YUV
    Chroma subsampling                       : 4:2:0
    Bit depth                                : 8 bits
    Scan type                                : Progressive
    Compression mode                         : Lossy
    Bits/(Pixel*Frame)                       : 0.187
    Stream size                              : 1 006 MiB (77%)
    Writing library                          : XviD 67
    Default                                  : Yes
    Forced                                   : No
    
    Audio #1
    ID                                       : 2
    Format                                   : MPEG Audio
    Format version                           : Version 1
    Format profile                           : Layer 3
    Format settings                          : Joint stereo
    Codec ID                                 : A_MPEG/L3
    Codec ID/Hint                            : MP3
    Duration                                 : 1 h 46 min
    Bit rate mode                            : Constant
    Bit rate                                 : 192 kb/s
    Channel(s)                               : 2 channels
    Sampling rate                            : 48.0 kHz
    Frame rate                               : 41.667 FPS (1152 SPF)
    Compression mode                         : Lossy
    Stream size                              : 147 MiB (11%)
    Writing library                          : LAME3.99r
    Encoding settings                        : -m j -V 4 -q 2 -lowpass 18.6 -b 192
    Language                                 : German
    Default                                  : Yes
    Forced                                   : No
    
    Audio #2
    ID                                       : 3
    Format                                   : MPEG Audio
    Format version                           : Version 1
    Format profile                           : Layer 3
    Format settings                          : Joint stereo
    Codec ID                                 : A_MPEG/L3
    Codec ID/Hint                            : MP3
    Duration                                 : 1 h 46 min
    Bit rate mode                            : Constant
    Bit rate                                 : 192 kb/s
    Channel(s)                               : 2 channels
    Sampling rate                            : 48.0 kHz
    Frame rate                               : 41.667 FPS (1152 SPF)
    Compression mode                         : Lossy
    Stream size                              : 147 MiB (11%)
    Writing library                          : LAME3.99r
    Encoding settings                        : -m j -V 4 -q 2 -lowpass 18.6 -b 192
    Language                                 : German
    Default                                  : No
    Forced                                   : No
    
    Text #1
    ID                                       : 4
    Format                                   : PGS
    Muxing mode                              : zlib
    Codec ID                                 : S_HDMV/PGS
    Codec ID/Info                            : Picture based subtitle format used on BDs/HD-DVDs
    Duration                                 : 1 h 45 min
    Bit rate                                 : 10.6 kb/s
    Count of elements                        : 2399
    Stream size                              : 7.99 MiB (1%)
    Default                                  : Yes
    Forced                                   : No
    
    Text #2
    ID                                       : 5
    Format                                   : PGS
    Muxing mode                              : zlib
    Codec ID                                 : S_HDMV/PGS
    Codec ID/Info                            : Picture based subtitle format used on BDs/HD-DVDs
    Duration                                 : 1 h 29 min
    Bit rate                                 : 275 b/s
    Count of elements                        : 60
    Stream size                              : 180 KiB (0%)
    Default                                  : No
    Forced                                   : No

    ##################################################
    Download

    Filecrypt.cc


    Relink.to


    Passwort: bySunny
    ##################################################

  2. #Free Download
     

Berechtigungen

  • Neue Themen erstellen: Nein
  • Themen beantworten: Nein
  • Anhänge hochladen: Nein
  • Beiträge bearbeiten: Nein
  •