Ergebnis 1 bis 1 von 1

Thema: Wildling 2018 720p WEBRip XviD AC3 - FGT

  1. #1
    MyBoerse.bz Pro Member Avatar von FireTiger
    Registriert seit
    29.01.15
    Beiträge
    4.069
    Bedankt
    2
    Danke erhalten: 447

    Wildling 2018 720p WEBRip XviD AC3 - FGT

    Wildling.2018.720p.WEBRip.XviD.AC3-FGT



    Title: Wildling (2018)
    IMDB Rating: 6.2/10 from 1775 users Updated : 2018-04-17
    Rotten Rating: 6.3/10
    RottenTomatoes: fresh! 71% audience liked it! 69%
    Genres: Fantasy , Horror
    Actors: Liv Tyler , Brad Dourif , Bel Powley , James Le Gros , Mike Faist , Troy Ruptash , Bhavesh Patel , Frank Deal , Kelly Lamor Wilson ,
    Brian Donahue , Charlotte Ubben , Julia Rusatsky , Patrick M. Walsh , Keenan Jolliff , Collin Kelly-Sordelet
    Director: Fritz Böhm
    IMDB Runtime: 92
    Year: 2018
    Plot: Anna spends her entire childhood under the care of a mysterious man she only knows as Daddy. He keeps her locked in an attic making her fear the Wildling| a
    child-eating monster that roams the outside. At age 16| Anna is freed by small-town sheriff Ellen Cooper who helps her start a new life as a normal teenager. But as
    Anna's body begins to blossom| her childhood nightmares return with a vengeance| leading to the conclusion of a terrifying secret.

    Media info:
    Code:
    Video
    ID                                       : 0
    Format                                   : MPEG-4 Visual
    Format profile                           : [email protected]
    Format settings, BVOP                    : No
    Format settings, QPel                    : No
    Format settings, GMC                     : No warppoints
    Format settings, Matrix                  : Default (H.263)
    Codec ID                                 : XVID
    Codec ID/Hint                            : XviD
    Duration                                 : 1 h 32 min
    Bit rate                                 : 4 004 kb/s
    Width                                    : 1 280 pixels
    Height                                   : 532 pixels
    Display aspect ratio                     : 2.40:1
    Frame rate                               : 23.976 (24000/1001) FPS
    Color space                              : YUV
    Chroma subsampling                       : 4:2:0
    Bit depth                                : 8 bits
    Scan type                                : Progressive
    Compression mode                         : Lossy
    Bits/(Pixel*Frame)                       : 0.245
    Stream size                              : 2.59 GiB (86%)
    Writing library                          : Lavc58.1.100
    
    Audio
    ID                                       : 1
    Format                                   : AC-3
    Format/Info                              : Audio Coding 3
    Codec ID                                 : 2000
    Duration                                 : 1 h 32 min
    Bit rate mode                            : Constant
    Bit rate                                 : 640 kb/s
    Channel(s)                               : 6 channels
    Channel positions                        : Front: L C R, Side: L R, LFE
    Sampling rate                            : 48.0 kHz
    Frame rate                               : 31.250 FPS (1536 SPF)
    Bit depth                                : 16 bits
    Compression mode                         : Lossy
    Stream size                              : 424 MiB (14%)
    Alignment                                : Aligned on interleaves
    Interleave, duration                     : 42  ms (1.00 video frame)
    Interleave, preload duration             : 512  ms
    Service kind                             : Complete Main


    Language(audio): English
    Language(subtitles): -
    Format: xvid / avi
    Hoster: Share-Online
    Size: 3.01 GB
    Password: - no password -

    DDL - Download from One Click Hoster
    Code:
    http://www.share-online.biz/dl/YJGHQB7PW7
    http://www.share-online.biz/dl/OLHHQB7PYI
    http://www.share-online.biz/dl/NLGHQB7P83
    http://www.share-online.biz/dl/12IHQB7PSO
    http://www.share-online.biz/dl/PTIHQB7P2X2
    http://www.share-online.biz/dl/U8JHQB7PQ3
    http://www.share-online.biz/dl/KQJHQB7PMIW1
    http://www.share-online.biz/dl/JOKHQB7PHIJI
    http://www.share-online.biz/dl/NTJHQB7PVW

  2. #Free Download
    Power Free Uploader
    Registriert seit
    16.07.2014
    Beiträge
    2417
     

Berechtigungen

  • Neue Themen erstellen: Nein
  • Themen beantworten: Nein
  • Anhänge hochladen: Nein
  • Beiträge bearbeiten: Nein
  •