Votet für MyBoerse.bz
Topliste

Ergebnis 1 bis 1 von 1

Thema: The World's Most Beautiful Melodies - Cocktail Piano Romance (1999)

  1. #1
    MyBoerse.bz Pro Member Avatar von TooOldToDieYoung
    Registriert seit
    18.07.14
    Beiträge
    2.660
    Bedankt
    0
    Danke erhalten: 1.137

    The World's Most Beautiful Melodies - Cocktail Piano Romance (1999)





    Tracklist:

    01. The Dennis Wilson Quartet - Misty (3:36)
    02. The Ronnie Price Quartet - Mack The Knife (3:51)
    03. The Dennis Wilson Quartet - Autumn Leaves (2:21)
    04. The Frank Horrox Quintet - Moonglow (2:15)
    05. The Geoff Eales Quintet - Medly: Easy to Love/You'd Be So Nice To Come Home To (2:56)
    06. Marian McPartland, Piano - I've Got A Crush On You (3:16)
    07. The Ronnie Price Quartet - Love Me Or Leave Me (2:02)
    08. The Frank Horrox Quartet - How Deep Is The Ocean (2:14)
    09. Neil Wolfe, Piano - The Way We Were (3:47)
    10. The Ronnie Price Sextet - Witchcraft (2:20)
    11. The Dennis Wilson Quartet - Cocktails For Two (2:58)
    12. The Dick Human Group - Long Ago (3:41)
    13. The Dennis Wilson Quartet - Heart and Soul (2:43)
    14. Johnny Guarnieri, Piano - THe Blue Room (2:47)
    15. Bill Snyder, Piano - BLue Moon (2:50)
    16. The Richard Alden Trio - 'S Wonderful (1:47)
    17. Bill Snyder, Piano - Tenderly (3:25)
    18. The Ronnie Price Quartet - One For My Baby (3:46)


    Log:
    Exact Audio Copy V1.0 beta 3 from 29. August 2011

    EAC extraction logfile from 2. January 2018, 1:31

    Various / The World's Most Beautiful Melodies - Cocktail Piano Romance

    Used drive : PIONEER BD-RW BDR-TD03 Adapter: 0 ID: 1

    Read mode : Secure
    Utilize accurate stream : Yes
    Defeat audio cache : Yes
    Make use of C2 pointers : No

    Read offset correction : 667
    Overread into Lead-In and Lead-Out : No
    Fill up missing offset samples with silence : Yes
    Delete leading and trailing silent blocks : No
    Null samples used in CRC calculations : Yes
    Used interface : Native Win32 interface for Win NT & 2000

    Used output format : User Defined Encoder
    Selected bitrate : 768 kBit/s
    Quality : High
    Add ID3 tag : No
    Command line compressor : C:\Program Files (x86)\Exact Audio Copy\FLAC\FLAC.EXE
    Additional command line options : -6 -V -T "ARTIST=%artist%" -T "TITLE=%title%" -T "ALBUM=%albumtitle%" -T "DATE=%year%" -T "TRACKNUMBER=%tracknr%" -T "GENRE=%genre%" -T "COMMENT=%comment%" -T "BAND=%albuminterpret%" -T "ALBUMARTIST=%albuminterpret%" -T "COMPOSER=%composer%" %haslyrics%--tag-from-file=LYRICS="%lyricsfile%"%haslyrics% -T "DISCNUMBER=%cdnumber%" -T "TOTALDISCS=%totalcds%" -T "TOTALTRACKS=%numtracks%" %hascover%--picture="%coverfile%"%hascover% %source% -o %dest%


    TOC of the extracted CD

    Track | Start | Length | Start sector | End sector
    ---------------------------------------------------------
    1 | 0:00.00 | 3:36.00 | 0 | 16199
    2 | 3:36.00 | 3:51.40 | 16200 | 33564
    3 | 7:27.40 | 2:21.60 | 33565 | 44199
    4 | 9:49.25 | 2:15.30 | 44200 | 54354
    5 | 12:04.55 | 2:56.70 | 54355 | 67624
    6 | 15:01.50 | 3:16.15 | 67625 | 82339
    7 | 18:17.65 | 2:02.57 | 82340 | 91546
    8 | 20:20.47 | 2:14.40 | 91547 | 101636
    9 | 22:35.12 | 3:47.63 | 101637 | 118724
    10 | 26:23.00 | 2:20.47 | 118725 | 129271
    11 | 28:43.47 | 2:58.28 | 129272 | 142649
    12 | 31:42.00 | 3:41.10 | 142650 | 159234
    13 | 35:23.10 | 2:43.17 | 159235 | 171476
    14 | 38:06.27 | 2:47.48 | 171477 | 184049
    15 | 40:54.00 | 2:50.50 | 184050 | 196849
    16 | 43:44.50 | 1:47.70 | 196850 | 204944
    17 | 45:32.45 | 3:25.67 | 204945 | 220386
    18 | 48:58.37 | 3:46.18 | 220387 | 237354


    Range status and errors

    Selected range

    Filename C:\Users\Deris\Desktop\CocktPian\Various - The World's Most Beautiful Melodies - Cocktail Piano Romance.wav

    Peak level 97.6 %
    Extraction speed 1.7 X
    Range quality 100.0 %
    Test CRC 4CF2074F
    Copy CRC 4CF2074F
    Copy OK

    No errors occurred


    AccurateRip summary

    Track 1 not present in database
    Track 2 not present in database
    Track 3 not present in database
    Track 4 not present in database
    Track 5 not present in database
    Track 6 not present in database
    Track 7 not present in database
    Track 8 not present in database
    Track 9 not present in database
    Track 10 not present in database
    Track 11 not present in database
    Track 12 not present in database
    Track 13 not present in database
    Track 14 not present in database
    Track 15 not present in database
    Track 16 not present in database
    Track 17 not present in database
    Track 18 not present in database

    None of the tracks are present in the AccurateRip database

    End of status report

    ---- CUETools DB Plugin V2.1.3

    [CTDB TOCID: hUgbQLkJk6J2QfVA77RBsl0cBtc-] disk not present in database, Submit result: hUgbQLkJk6J2QfVA77RBsl0cBtc- has been uploaded


    ==== Log checksum AEA7C3BE79FC0DC636AC507C68744592672D5087DCDF56DAB1 BF3A432800A2DA ====


    Cue:
    REM GENRE "Easy Listening"
    REM DATE 1999
    REM DISCID 010C5C12
    REM COMMENT "ExactAudioCopy v1.0b3"
    PERFORMER "Various"
    TITLE "The World's Most Beautiful Melodies - Cocktail Piano Romance"
    FILE "Various - The World's Most Beautiful Melodies - Cocktail Piano Romance.flac" WAVE
    TRACK 01 AUDIO
    TITLE "Misty"
    PERFORMER "Various"
    INDEX 01 00:00:00
    TRACK 02 AUDIO
    TITLE "Mack The Knife"
    PERFORMER "Various"
    INDEX 00 03:33:30
    INDEX 01 03:36:00
    TRACK 03 AUDIO
    TITLE "Autumn Leaves"
    PERFORMER "Various"
    INDEX 00 07:24:70
    INDEX 01 07:27:40
    TRACK 04 AUDIO
    TITLE "Moonglow"
    PERFORMER "Various"
    INDEX 00 09:46:55
    INDEX 01 09:49:25
    TRACK 05 AUDIO
    TITLE "Medly: Easy to Love"
    PERFORMER "Various"
    INDEX 00 12:02:10
    INDEX 01 12:04:55
    TRACK 06 AUDIO
    TITLE "I've Got A Crush On You"
    PERFORMER "Various"
    INDEX 00 14:59:05
    INDEX 01 15:01:50
    TRACK 07 AUDIO
    TITLE "Love Me Or Leave Me"
    PERFORMER "Various"
    INDEX 00 18:15:65
    INDEX 01 18:17:65
    TRACK 08 AUDIO
    TITLE "How Deep Is The Ocean"
    PERFORMER "Various"
    INDEX 00 20:18:02
    INDEX 01 20:20:47
    TRACK 09 AUDIO
    TITLE "The Way We Were"
    PERFORMER "Various"
    INDEX 00 22:32:42
    INDEX 01 22:35:12
    TRACK 10 AUDIO
    TITLE "Witchcraft"
    PERFORMER "Various"
    INDEX 00 26:21:05
    INDEX 01 26:23:00
    TRACK 11 AUDIO
    TITLE "Cocktails For Two"
    PERFORMER "Various"
    INDEX 00 28:41:30
    INDEX 01 28:43:47
    TRACK 12 AUDIO
    TITLE "Long Ago"
    PERFORMER "Various"
    INDEX 00 31:39:66
    INDEX 01 31:42:00
    TRACK 13 AUDIO
    TITLE "Heart and Soul"
    PERFORMER "Various"
    INDEX 00 35:20:41
    INDEX 01 35:23:10
    TRACK 14 AUDIO
    TITLE "THe Blue Room"
    PERFORMER "Various"
    INDEX 00 38:03:57
    INDEX 01 38:06:27
    TRACK 15 AUDIO
    TITLE "BLue Moon"
    PERFORMER "Various"
    INDEX 00 40:51:30
    INDEX 01 40:54:00
    TRACK 16 AUDIO
    TITLE "'S Wonderful"
    PERFORMER "Various"
    INDEX 00 43:42:06
    INDEX 01 43:44:50
    TRACK 17 AUDIO
    TITLE "Tenderly"
    PERFORMER "Various"
    INDEX 00 45:30:15
    INDEX 01 45:32:45
    TRACK 18 AUDIO
    TITLE "One For My Baby"
    PERFORMER "Various"
    INDEX 00 48:55:69
    INDEX 01 48:58:37


    Format: FLAC
    Bitrate: lossless
    Größe: 246 MB

    Download

    * Share-Online *


    MfG TooOldToDieYoung

    Wenn es Probleme beim Entpacken gibt das aktuelle Winrar benutzen. Das Album besteht aus einer einzelnen Datei, die Lösung.

  2. Folgende Benutzer haben sich bei TooOldToDieYoung für diesen Beitrag bedankt:

    serotonon (21.01.18)

  3. #Free Download
    Power Free Uploader
    Registriert seit
    16.07.2014
    Beiträge
    2417
     

Berechtigungen

  • Neue Themen erstellen: Nein
  • Themen beantworten: Nein
  • Anhänge hochladen: Nein
  • Beiträge bearbeiten: Nein
  •