Votet für MyBoerse.bz
Topliste

Neue Moderatoren gesucht!
Ergebnis 1 bis 1 von 1

Thema: Iron Maiden - Seventh Son Of A Seventh Son (1988) [Remastered 1998]

  1. #1
    MyBoerse.bz Pro Member Avatar von TooOldToDieYoung
    Registriert seit
    18.07.14
    Beitrge
    2.632
    Bedankt
    0
    Danke erhalten: 1.124

    Iron Maiden - Seventh Son Of A Seventh Son (1988) [Remastered 1998]





    Tracklist:

    01. Moonchild [5:41]
    02. Infinite Dreams [6:09]
    03. Can I Play With Madness [3:31]
    04. The Evil That Men Do [4:34]
    05. Seventh Son Of A Seventh Son [9:54]
    06. The Prophecy [5:05]
    07. The Clairvoyant [4:27]
    08. Only The Good Die Young [4:41]


    Log:
    Exact Audio Copy V0.99 prebeta 5 from 4. May 2009

    EAC , 28. 2013, 11:56

    Iron Maiden / Seventh Son of a Seventh Son (Remastered 1998)

    : ASUS DRW-22B2L Adapter: 0 ID: 1

    :
    :
    :
    C2 :

    : 6
    Lead-in Lead-out :
    :
    :
    CRC :
    : Win32- Win NT/2000

    : WAV-
    : 44.100 ; 16 ;


    TOC CD

    | | | |
    ---------------------------------------------------------------------
    1 | 0:00.00 | 5:40.57 | 0 | 25556
    2 | 5:40.57 | 6:08.73 | 25557 | 53229
    3 | 11:49.55 | 3:31.02 | 53230 | 69056
    4 | 15:20.57 | 4:33.73 | 69057 | 89604
    5 | 19:54.55 | 9:53.40 | 89605 | 134119
    6 | 29:48.20 | 5:05.35 | 134120 | 157029
    7 | 34:53.55 | 4:27.00 | 157030 | 177054
    8 | 39:20.55 | 4:40.67 | 177055 | 198121
    9 | 46:33.47 | 18:56.32 | 209522 | 294753






    D:\Iron Maiden 1988\Iron Maiden - Seventh Son of a Seventh Son (Remastered 1998).wav

    97.2 %
    100.0 %
    CRC CE03202A
    CRC CE03202A
    ... OK




    AccurateRip:

    1 ( 47) [2C60C383]
    2 ( 47) [5A477723]
    3 ( 47) [FF4A27B1]
    4 ( 47) [33910799]
    5 ( 47) [595194B4]
    6 ( 47) [D50623BA]
    7 ( 47) [583492A5]
    8 ( 45) [5922776F]





    Cue:
    REM GENRE "Heavy Metal"
    REM DATE 1988
    REM DISCID 770F5A09
    REM COMMENT "ExactAudioCopy v0.99pb5"
    PERFORMER "Iron Maiden"
    TITLE "Seventh Son of a Seventh Son (Remastered 1998)"
    FILE "Iron Maiden - Seventh Son of a Seventh Son (Remastered 1998).wav" WAVE
    TRACK 01 AUDIO
    TITLE "Moonchild"
    PERFORMER "Iron Maiden"
    INDEX 01 00:00:00
    TRACK 02 AUDIO
    TITLE "Infinite Dreams"
    PERFORMER "Iron Maiden"
    INDEX 00 05:40:02
    INDEX 01 05:40:57
    TRACK 03 AUDIO
    TITLE "Can I Play With Madness"
    PERFORMER "Iron Maiden"
    INDEX 01 11:49:55
    TRACK 04 AUDIO
    TITLE "The Evil That Men Do"
    PERFORMER "Iron Maiden"
    INDEX 01 15:20:57
    TRACK 05 AUDIO
    TITLE "Seventh Son Of A Seventh Son"
    PERFORMER "Iron Maiden"
    INDEX 00 19:54:10
    INDEX 01 19:54:55
    TRACK 06 AUDIO
    TITLE "The Prophecy"
    PERFORMER "Iron Maiden"
    INDEX 00 29:47:32
    INDEX 01 29:48:20
    TRACK 07 AUDIO
    TITLE "The Clairvoyant"
    PERFORMER "Iron Maiden"
    INDEX 01 34:53:55
    TRACK 08 AUDIO
    TITLE "Only The Good Die Young"
    PERFORMER "Iron Maiden"
    INDEX 00 39:20:52
    INDEX 01 39:20:55


    Format: FLAC
    Bitrate: lossless
    Gre: 408 MB

    Download

    * Share-Online *


    MfG TooOldToDieYoung

    Wenn es Probleme beim Entpacken gibt das aktuelle Winrar benutzen. Das Album besteht aus einer einzelnen Datei, die Lsung.

  2. #Free Download
    Power Free Uploader
    Registriert seit
    16.07.2014
    Beitrge
    2417
     

Berechtigungen

  • Neue Themen erstellen: Nein
  • Themen beantworten: Nein
  • Anhnge hochladen: Nein
  • Beitrge bearbeiten: Nein
  •