Ergebnis 1 bis 1 von 1

Thema: In Extremo - Sieben (2003)

  1. #1
    MyBoerse.bz Pro Member Avatar von TooOldToDieYoung
    Registriert seit
    18.07.14
    Beiträge
    2.917
    Bedankt
    0
    Danke erhalten: 1.229

    In Extremo - Sieben (2003)





    Tracklist:

    01. Erdbeermund [4:06]
    02. Sefardim [4:07]
    03. Ave Maria [5:42]
    04. Mein Kind [6:36]
    05. Sagrada Trobar [3:44]
    06. Kuss mich [4:11]
    07. Davert-Tanz [3:12]
    08. Melancholie [4:26]
    09. Albtraum [4:06]
    10. Pferdesegen [2:53]
    11. Nymphenzeit [4:03]
    12. Madre Deus [3:30]
    13. Segel Setzen [3:47]


    Log:
    Exact Audio Copy V1.0 beta 3 from 29. August 2011

    Отчёт EAC об извлечении, выполненном 12. декабря 2014, 21:48

    In Extremo / Sieben

    Дисковод: Optiarc DVD RW AD-7200S Adapter: 1 ID: 0

    Режим чтения : Достоверность
    Использование точного потока : Да
    Отключение кэша аудио : Да
    Использование указателей C2 : Нет

    Коррекция смещения при чтении : 48
    Способность читать области Lead-in и Lead-out : Нет
    Заполнение пропущенных сэмплов тишиной : Да
    Удаление блоков с тишиной в начале и конце : Нет
    При вычислениях CRC использовались нулевые сэмплы : Да
    Интерфейс : Встроенный Win32-интерфейс для Win NT/2000

    Выходной формат : Пользовательский кодировщик
    Выбранный битрейт : 896 kBit/s
    Качество : Высокий
    Добавление ID3-тега : Нет
    Утилита сжатия : D:\Program Files\EACPortable\App\EAC\FLAC\flac.exe
    Дополнительные параметры : -6 -V -T "ARTIST=%artist%" -T "TITLE=%title%" -T "ALBUM=%albumtitle%" -T "DATE=%year%" -T "TRACKNUMBER=%tracknr%" -T "GENRE=%genre%" -T "COMMENT=%comment%" %hascover%--picture="%coverfile%"%hascover% %source% -o %dest%


    TOC извлечённого CD

    Трек | Старт | Длительность | Начальный сектор | Конечный сектор
    ---------------------------------------------------------------------
    1 | 0:00.00 | 4:06.14 | 0 | 18463
    2 | 4:06.14 | 4:06.53 | 18464 | 36966
    3 | 8:12.67 | 5:42.10 | 36967 | 62626
    4 | 13:55.02 | 6:35.68 | 62627 | 92319
    5 | 20:30.70 | 3:43.56 | 92320 | 109100
    6 | 24:14.51 | 4:10.38 | 109101 | 127888
    7 | 28:25.14 | 3:12.03 | 127889 | 142291
    8 | 31:37.17 | 4:25.45 | 142292 | 162211
    9 | 36:02.62 | 4:05.60 | 162212 | 180646
    10 | 40:08.47 | 2:52.67 | 180647 | 193613
    11 | 43:01.39 | 4:03.20 | 193614 | 211858
    12 | 47:04.59 | 3:29.52 | 211859 | 227585
    13 | 50:34.36 | 3:46.71 | 227586 | 244606


    Характеристики диапазона извлечения и сообщения об ошибках

    Выбранный диапазон

    Имя файла C:\Users\Rohai\Desktop\Всё!\Рипы\In Extremo - Sieben.wav

    Пиковый уровень 99.9 %
    Скорость извлечения 3.9 X
    Качество диапазона 100.0 %
    CRC теста 646A5C58
    CRC копии 646A5C58
    Копирование... OK

    Ошибок не произошло


    AccurateRip: сводка

    Трек 1 : извлечено точно (доверие 47) [17737DC0] (AR v2)
    Трек 2 : извлечено точно (доверие 47) [B984D216] (AR v2)
    Трек 3 : извлечено точно (доверие 47) [9CA77A47] (AR v2)
    Трек 4 : извлечено точно (доверие 46) [24882910] (AR v2)
    Трек 5 : извлечено точно (доверие 47) [7E5FDACD] (AR v2)
    Трек 6 : извлечено точно (доверие 49) [694561CD] (AR v2)
    Трек 7 : извлечено точно (доверие 48) [27105E20] (AR v2)
    Трек 8 : извлечено точно (доверие 47) [58D6EE57] (AR v2)
    Трек 9 : извлечено точно (доверие 47) [D8C1D851] (AR v2)
    Трек 10 : извлечено точно (доверие 47) [DBC2AEBE] (AR v2)
    Трек 11 : извлечено точно (доверие 47) [70171313] (AR v2)
    Трек 12 : извлечено точно (доверие 48) [0E2BD469] (AR v2)
    Трек 13 : извлечено точно (доверие 49) [6BAAF31C] (AR v2)

    Все треки извлечены точно

    Конец отчёта


    Cue:
    REM GENRE "Gothic Rock"
    REM DATE 2003
    REM DISCID B90CBD0D
    REM COMMENT "ExactAudioCopy v1.0b3"
    PERFORMER "In Extremo"
    TITLE "Sieben"
    FILE "In Extremo - Sieben.flac" WAVE
    TRACK 01 AUDIO
    TITLE "Erdbeermund"
    PERFORMER "In Extremo"
    INDEX 01 00:00:00
    TRACK 02 AUDIO
    TITLE "Sefardim"
    PERFORMER "In Extremo"
    INDEX 00 04:04:14
    INDEX 01 04:06:14
    TRACK 03 AUDIO
    TITLE "Ave Maria"
    PERFORMER "In Extremo"
    INDEX 00 08:10:67
    INDEX 01 08:12:67
    TRACK 04 AUDIO
    TITLE "Mein Kind"
    PERFORMER "In Extremo"
    INDEX 00 13:53:02
    INDEX 01 13:55:02
    TRACK 05 AUDIO
    TITLE "Sagrada Trobar"
    PERFORMER "In Extremo"
    INDEX 00 20:28:70
    INDEX 01 20:30:70
    TRACK 06 AUDIO
    TITLE "Kuss mich"
    PERFORMER "In Extremo"
    INDEX 00 24:12:51
    INDEX 01 24:14:51
    TRACK 07 AUDIO
    TITLE "Davert-Tanz"
    PERFORMER "In Extremo"
    INDEX 00 28:23:14
    INDEX 01 28:25:14
    TRACK 08 AUDIO
    TITLE "Melancholie"
    PERFORMER "In Extremo"
    INDEX 00 31:34:17
    INDEX 01 31:37:17
    TRACK 09 AUDIO
    TITLE "Albtraum"
    PERFORMER "In Extremo"
    INDEX 00 36:00:62
    INDEX 01 36:02:62
    TRACK 10 AUDIO
    TITLE "Pferdesegen"
    PERFORMER "In Extremo"
    INDEX 00 40:06:47
    INDEX 01 40:08:47
    TRACK 11 AUDIO
    TITLE "Nymphenzeit"
    PERFORMER "In Extremo"
    INDEX 00 42:59:39
    INDEX 01 43:01:39
    TRACK 12 AUDIO
    TITLE "Madre Deus"
    PERFORMER "In Extremo"
    INDEX 00 47:02:59
    INDEX 01 47:04:59
    TRACK 13 AUDIO
    TITLE "Segel Setzen"
    PERFORMER "In Extremo"
    INDEX 00 50:32:36
    INDEX 01 50:34:36


    Format: FLAC
    Bitrate: lossless
    Größe: 495 MB

    Download

    * Rapidgator *


    * Share-Online *


    * Turbobit *

    Geändert von TooOldToDieYoung (04.06.18 um 08:27 Uhr)
    MfG TooOldToDieYoung

    Wenn es Probleme beim Entpacken gibt das aktuelle Winrar benutzen. Das Album besteht aus einer einzelnen Datei, die Lösung.

  2. #Free Download
    Power Free Uploader
    Registriert seit
    16.07.2014
    Beiträge
    2417
     

Berechtigungen

  • Neue Themen erstellen: Nein
  • Themen beantworten: Nein
  • Anhänge hochladen: Nein
  • Beiträge bearbeiten: Nein
  •