Ergebnis 1 bis 1 von 1

Thema: Genesis - Live - The Way We Walk Volume One - The Shorts (1992)

  1. #1
    MyBoerse.bz Pro Member Avatar von TooOldToDieYoung
    Registriert seit
    18.07.14
    Beiträge
    3.064
    Bedankt
    1
    Danke erhalten: 1.265

    Genesis - Live - The Way We Walk Volume One - The Shorts (1992)





    Tracklist:

    01. Genesis - Land of Confusion [5:17]
    02. Genesis - No Son of Mine [7:05]
    03. Genesis - Jesus He Knows Me [5:24]
    04. Genesis - Throwing It All Away [6:02]
    05. Genesis - I Can't Dance [6:55]
    06. Genesis - Mama [6:51]
    07. Genesis - Hold on My Heart [5:41]
    08. Genesis - That's All [4:59]
    09. Genesis - In Too Deep [5:36]
    10. Genesis - Tonight, Tonight, Tonight [3:36]
    11. Genesis - Invisible Touch [5:42]


    Log:
    Exact Audio Copy V1.0 beta 3 from 29. August 2011

    Отчёт EAC об извлечении, выполненном 17. ноября 2012, 21:15

    Genesis / Live - The Way We Walk Volume One - The Shorts

    Дисковод: Optiarc DVD RW AD-5280S Adapter: 2 ID: 1

    Режим чтения : Достоверность
    Использование точного потока : Да
    Отключение кэша аудио : Да
    Использование указателей C2 : Нет

    Коррекция смещения при чтении : 48
    Способность читать области Lead-in и Lead-out : Нет
    Заполнение пропущенных сэмплов тишиной : Да
    Удаление блоков с тишиной в начале и конце : Нет
    При вычислениях CRC использовались нулевые сэмплы : Да
    Интерфейс : Установленный внешний ASPI-интерфейс

    Выходной формат : Внутренние WAV-операции
    Формат сэмплов : 44.100 Гц; 16 бит; стерео


    TOC извлечённого CD

    Трек | Старт | Длительность | Начальный сектор | Конечный сектор
    ---------------------------------------------------------------------
    1 | 0:00.20 | 5:16.67 | 20 | 23786
    2 | 5:17.12 | 7:05.35 | 23787 | 55696
    3 | 12:22.47 | 5:23.38 | 55697 | 79959
    4 | 17:46.10 | 6:01.52 | 79960 | 107086
    5 | 23:47.62 | 6:55.08 | 107087 | 138219
    6 | 30:42.70 | 6:50.47 | 138220 | 169016
    7 | 37:33.42 | 5:40.53 | 169017 | 194569
    8 | 43:14.20 | 4:58.65 | 194570 | 216984
    9 | 48:13.10 | 5:36.27 | 216985 | 242211
    10 | 53:49.37 | 3:35.45 | 242212 | 258381
    11 | 57:25.07 | 5:41.60 | 258382 | 284016


    Характеристики диапазона извлечения и сообщения об ошибках

    Выбранный диапазон

    Имя файла C:\Genesis - Live - The Way We Walk Volume One - The Shorts.wav

    Пиковый уровень 99.7 %
    Скорость извлечения 4.3 X
    Качество диапазона 100.0 %
    CRC теста C320C6B7
    CRC копии C320C6B7
    Копирование... OK

    Ошибок не произошло


    AccurateRip: сводка

    Трек 1 : извлечено точно (доверие 11) [A6081E74] (AR v2)
    Трек 2 : извлечено точно (доверие 11) [2C2081A5] (AR v2)
    Трек 3 : извлечено точно (доверие 11) [3376D7FA] (AR v2)
    Трек 4 : извлечено точно (доверие 11) [617B7EFA] (AR v2)
    Трек 5 : извлечено точно (доверие 11) [4374074D] (AR v2)
    Трек 6 : извлечено точно (доверие 11) [A04BB140] (AR v2)
    Трек 7 : извлечено точно (доверие 10) [BA1BD981] (AR v2)
    Трек 8 : извлечено точно (доверие 10) [E25C458D] (AR v2)
    Трек 9 : извлечено точно (доверие 10) [FCF899A9] (AR v2)
    Трек 10 : извлечено точно (доверие 10) [AB6C319A] (AR v2)
    Трек 11 : извлечено точно (доверие 10) [F26A0891] (AR v2)

    Все треки извлечены точно

    Конец отчёта

    ==== Контрольная сумма отчёта F98995D9B100D4F2D355CB75705B1C9F123D125E77B1086ABC 01D0DBB35EE57C ====


    Cue:
    REM GENRE Rock
    REM DATE 1992
    REM DISCID A50ECA0B
    REM COMMENT "ExactAudioCopy v1.0b3"
    PERFORMER "Genesis"
    TITLE "Live - The Way We Walk Volume One - The Shorts"
    FILE "Genesis - Live - The Way We Walk Volume One - The Shorts.flac" WAVE
    TRACK 01 AUDIO
    TITLE "Land of Confusion"
    PERFORMER "Genesis"
    INDEX 00 00:00:00
    INDEX 01 00:00:20
    TRACK 02 AUDIO
    TITLE "No Son of Mine"
    PERFORMER "Genesis"
    INDEX 01 05:17:12
    TRACK 03 AUDIO
    TITLE "Jesus He Knows Me"
    PERFORMER "Genesis"
    INDEX 01 12:22:47
    TRACK 04 AUDIO
    TITLE "Throwing It All Away"
    PERFORMER "Genesis"
    INDEX 01 17:46:10
    TRACK 05 AUDIO
    TITLE "I Can't Dance"
    PERFORMER "Genesis"
    INDEX 01 23:47:62
    TRACK 06 AUDIO
    TITLE "Mama"
    PERFORMER "Genesis"
    INDEX 00 30:42:17
    INDEX 01 30:42:70
    TRACK 07 AUDIO
    TITLE "Hold on My Heart"
    PERFORMER "Genesis"
    INDEX 01 37:33:42
    TRACK 08 AUDIO
    TITLE "That's All"
    PERFORMER "Genesis"
    INDEX 01 43:14:20
    TRACK 09 AUDIO
    TITLE "In Too Deep"
    PERFORMER "Genesis"
    INDEX 01 48:13:10
    TRACK 10 AUDIO
    TITLE "Tonight, Tonight, Tonight"
    PERFORMER "Genesis"
    INDEX 01 53:49:37
    TRACK 11 AUDIO
    TITLE "Invisible Touch"
    PERFORMER "Genesis"
    INDEX 01 57:25:07


    Format: FLAC
    Bitrate: lossless
    Größe: 490 MB

    Download

    * Share-Online *

    Geändert von TooOldToDieYoung (12.10.18 um 14:48 Uhr)

  2. #Free Download
    Power Free Uploader
    Registriert seit
    16.07.2014
    Beiträge
    2417
     

Berechtigungen

  • Neue Themen erstellen: Nein
  • Themen beantworten: Nein
  • Anhänge hochladen: Nein
  • Beiträge bearbeiten: Nein
  •