Ergebnis 1 bis 1 von 1

Thema: Freddie Mercury & Montserrat Caballe - Barcelona (1994)

  1. #1
    MyBoerse.bz Pro Member Avatar von TooOldToDieYoung
    Registriert seit
    18.07.14
    Beiträge
    2.979
    Bedankt
    0
    Danke erhalten: 1.255

    Freddie Mercury & Montserrat Caballe - Barcelona (1994)





    Tracklist:

    01. Freddie Mercury & Montserrat Caballe - Barcelona [5:39]
    02. Freddie Mercury & Montserrat Caballe - La Japonaise [4:50]
    03. Freddie Mercury & Montserrat Caballe - The Fallen Priest [5:46]
    04. Freddie Mercury & Montserrat Caballe - Ensueno [4:21]
    05. Freddie Mercury & Montserrat Caballe - The Golden Boy [6:04]
    06. Freddie Mercury & Montserrat Caballe - Guide Me Home [2:42]
    07. Freddie Mercury & Montserrat Caballe - How Can I Go On [4:00]
    08. Freddie Mercury & Montserrat Caballe - Overture Piccante [6:41]


    Log:
    Exact Audio Copy V1.0 beta 3 from 29. August 2011

    EAC extraction logfile from 20. January 2013, 12:05

    Freddie Mercury & Montserrat Caballe / Barcelona

    Used drive : Optiarc DVD RW AD-5280S Adapter: 2 ID: 1

    Read mode : Secure
    Utilize accurate stream : Yes
    Defeat audio cache : Yes
    Make use of C2 pointers : No

    Read offset correction : 48
    Overread into Lead-In and Lead-Out : No
    Fill up missing offset samples with silence : Yes
    Delete leading and trailing silent blocks : No
    Null samples used in CRC calculations : Yes
    Used interface : Installed external ASPI interface

    Used output format : Internal WAV Routines
    Sample format : 44.100 Hz; 16 Bit; Stereo


    TOC of the extracted CD

    Track | Start | Length | Start sector | End sector
    ---------------------------------------------------------
    1 | 0:00.00 | 5:39.00 | 0 | 25424
    2 | 5:39.00 | 4:49.50 | 25425 | 47149
    3 | 10:28.50 | 5:45.62 | 47150 | 73086
    4 | 16:14.37 | 4:21.13 | 73087 | 92674
    5 | 20:35.50 | 6:04.30 | 92675 | 120004
    6 | 26:40.05 | 2:41.42 | 120005 | 132121
    7 | 29:21.47 | 4:00.03 | 132122 | 150124
    8 | 33:21.50 | 6:41.25 | 150125 | 180224


    Range status and errors

    Selected range

    Filename D:\Freddie Mercury & Montserrat Caballe - Barcelona.wav

    Peak level 85.4 %
    Extraction speed 3.6 X
    Range quality 99.9 %
    Test CRC 4A3C0058
    Copy CRC 4A3C0058
    Copy OK

    No errors occurred


    AccurateRip summary

    Track 1 accurately ripped (confidence 1) [31FD02DE] (AR v2)
    Track 2 accurately ripped (confidence 1) [C496BA8A] (AR v2)
    Track 3 accurately ripped (confidence 1) [5F8D70DD] (AR v2)
    Track 4 accurately ripped (confidence 1) [9E776856] (AR v2)
    Track 5 accurately ripped (confidence 1) [59956F4C] (AR v2)
    Track 6 accurately ripped (confidence 1) [D81705A2] (AR v2)
    Track 7 accurately ripped (confidence 1) [28C2B92B] (AR v2)
    Track 8 accurately ripped (confidence 1) [D46C8F11] (AR v2)

    All tracks accurately ripped

    End of status report


    Cue:
    REM GENRE "Rock, Pop, Classical"
    REM DATE 1994
    REM DISCID 55096308
    REM COMMENT "ExactAudioCopy v1.0b3"
    PERFORMER "Freddie Mercury & Montserrat Caballe"
    TITLE "Barcelona"
    FILE "Freddie Mercury & Montserrat Caballe - Barcelona.flac" WAVE
    TRACK 01 AUDIO
    TITLE "Barcelona"
    PERFORMER "Freddie Mercury & Montserrat Caballe"
    INDEX 01 00:00:00
    TRACK 02 AUDIO
    TITLE "La Japonaise"
    PERFORMER "Freddie Mercury & Montserrat Caballe"
    INDEX 00 05:38:37
    INDEX 01 05:39:00
    TRACK 03 AUDIO
    TITLE "The Fallen Priest"
    PERFORMER "Freddie Mercury & Montserrat Caballe"
    INDEX 00 10:28:47
    INDEX 01 10:28:50
    TRACK 04 AUDIO
    TITLE "Ensueno"
    PERFORMER "Freddie Mercury & Montserrat Caballe"
    INDEX 00 16:14:35
    INDEX 01 16:14:37
    TRACK 05 AUDIO
    TITLE "The Golden Boy"
    PERFORMER "Freddie Mercury & Montserrat Caballe"
    INDEX 00 20:34:50
    INDEX 01 20:35:50
    TRACK 06 AUDIO
    TITLE "Guide Me Home"
    PERFORMER "Freddie Mercury & Montserrat Caballe"
    INDEX 00 26:40:02
    INDEX 01 26:40:05
    TRACK 07 AUDIO
    TITLE "How Can I Go On"
    PERFORMER "Freddie Mercury & Montserrat Caballe"
    INDEX 00 29:21:45
    INDEX 01 29:21:47
    TRACK 08 AUDIO
    TITLE "Overture Piccante"
    PERFORMER "Freddie Mercury & Montserrat Caballe"
    INDEX 00 33:20:37
    INDEX 01 33:21:50


    Format: FLAC
    Bitrate: lossless
    Größe: 228 MB

    Download

    * Share-Online *

    Geändert von TooOldToDieYoung (10.10.18 um 21:22 Uhr)

  2. #Free Download
    Power Free Uploader
    Registriert seit
    16.07.2014
    Beiträge
    2417
     

Berechtigungen

  • Neue Themen erstellen: Nein
  • Themen beantworten: Nein
  • Anhänge hochladen: Nein
  • Beiträge bearbeiten: Nein
  •