Votet für MyBoerse.bz
Topliste

Neue Moderatoren gesucht!
Ergebnis 1 bis 1 von 1

Thema: Freddie Mercury - The Freddie Mercury Album (1992)

  1. #1
    MyBoerse.bz Pro Member Avatar von TooOldToDieYoung
    Registriert seit
    18.07.14
    Beiträge
    2.633
    Bedankt
    0
    Danke erhalten: 1.124

    Freddie Mercury - The Freddie Mercury Album (1992)





    Tracklist:

    01. Freddie Mercury - The Great Pretender [3:28]
    02. Freddie Mercury - Foolin' Around [3:36]
    03. Freddie Mercury - Time [3:50]
    04. Freddie Mercury - Your Kind Of Lover [3:59]
    05. Freddie Mercury - Exercises In Free Love [3:58]
    06. Freddie Mercury - In My Defence [3:53]
    07. Freddie Mercury - Mr. Bad Guy [3:56]
    08. Freddie Mercury - Let's Turn It On [3:46]
    09. Freddie Mercury - Living On My Own [3:39]
    10. Freddie Mercury - Love Kills [4:30]
    11. Freddie Mercury - Barcelona [5:38]


    Log:
    Exact Audio Copy V1.0 beta 3 from 29. August 2011

    EAC extraction logfile from 14. January 2013, 15:14

    Freddie Mercury / The Freddie Mercury Album

    Used drive : Optiarc DVD RW AD-5280S Adapter: 2 ID: 1

    Read mode : Secure
    Utilize accurate stream : Yes
    Defeat audio cache : Yes
    Make use of C2 pointers : No

    Read offset correction : 48
    Overread into Lead-In and Lead-Out : No
    Fill up missing offset samples with silence : Yes
    Delete leading and trailing silent blocks : No
    Null samples used in CRC calculations : Yes
    Used interface : Installed external ASPI interface

    Used output format : Internal WAV Routines
    Sample format : 44.100 Hz; 16 Bit; Stereo


    TOC of the extracted CD

    Track | Start | Length | Start sector | End sector
    ---------------------------------------------------------
    1 | 0:00.33 | 3:28.15 | 33 | 15647
    2 | 3:28.48 | 3:36.05 | 15648 | 31852
    3 | 7:04.53 | 3:50.20 | 31853 | 49122
    4 | 10:54.73 | 3:59.32 | 49123 | 67079
    5 | 14:54.30 | 3:58.20 | 67080 | 84949
    6 | 18:52.50 | 3:52.40 | 84950 | 102389
    7 | 22:45.15 | 3:56.10 | 102390 | 120099
    8 | 26:41.25 | 3:46.33 | 120100 | 137082
    9 | 30:27.58 | 3:39.07 | 137083 | 153514
    10 | 34:06.65 | 4:29.45 | 153515 | 173734
    11 | 38:36.35 | 5:37.53 | 173735 | 199062


    Range status and errors

    Selected range

    Filename C:\Freddie Mercury - The Freddie Mercury Album.wav

    Peak level 99.9 %
    Extraction speed 3.9 X
    Range quality 100.0 %
    Test CRC 8BD9F5D5
    Copy CRC 8BD9F5D5
    Copy OK

    No errors occurred


    AccurateRip summary

    Track 1 accurately ripped (confidence 6) [BA603AF6] (AR v2)
    Track 2 accurately ripped (confidence 6) [D5BEB415] (AR v2)
    Track 3 accurately ripped (confidence 6) [BF1D9F88] (AR v2)
    Track 4 accurately ripped (confidence 6) [440C2D11] (AR v2)
    Track 5 accurately ripped (confidence 6) [01607A66] (AR v2)
    Track 6 accurately ripped (confidence 6) [150D9EDE] (AR v2)
    Track 7 accurately ripped (confidence 6) [6A814FC1] (AR v2)
    Track 8 accurately ripped (confidence 6) [FBE36E1B] (AR v2)
    Track 9 accurately ripped (confidence 6) [5B7E92E3] (AR v2)
    Track 10 accurately ripped (confidence 6) [6B745277] (AR v2)
    Track 11 accurately ripped (confidence 6) [53BCD413] (AR v2)

    All tracks accurately ripped

    End of status report

    ==== Log checksum 50EE54EABF35BD3705F5D999042FB53CDF113533328AAFA312 09F84B2C0E1E7D ====


    Cue:
    REM GENRE Rock
    REM DATE 1992
    REM DISCID 8D0A5E0B
    REM COMMENT "ExactAudioCopy v1.0b3"
    PERFORMER "Freddie Mercury"
    TITLE "The Freddie Mercury Album"
    FILE "Freddie Mercury - The Freddie Mercury Album.flac" WAVE
    TRACK 01 AUDIO
    TITLE "The Great Pretender"
    PERFORMER "Freddie Mercury"
    INDEX 00 00:00:00
    INDEX 01 00:00:33
    TRACK 02 AUDIO
    TITLE "Foolin' Around"
    PERFORMER "Freddie Mercury"
    INDEX 00 03:28:45
    INDEX 01 03:28:48
    TRACK 03 AUDIO
    TITLE "Time"
    PERFORMER "Freddie Mercury"
    INDEX 00 07:04:50
    INDEX 01 07:04:53
    TRACK 04 AUDIO
    TITLE "Your Kind Of Lover"
    PERFORMER "Freddie Mercury"
    INDEX 00 10:54:13
    INDEX 01 10:54:73
    TRACK 05 AUDIO
    TITLE "Exercises In Free Love"
    PERFORMER "Freddie Mercury"
    INDEX 00 14:53:33
    INDEX 01 14:54:30
    TRACK 06 AUDIO
    TITLE "In My Defence"
    PERFORMER "Freddie Mercury"
    INDEX 00 18:51:53
    INDEX 01 18:52:50
    TRACK 07 AUDIO
    TITLE "Mr. Bad Guy"
    PERFORMER "Freddie Mercury"
    INDEX 00 22:44:38
    INDEX 01 22:45:15
    TRACK 08 AUDIO
    TITLE "Let's Turn It On"
    PERFORMER "Freddie Mercury"
    INDEX 00 26:40:45
    INDEX 01 26:41:25
    TRACK 09 AUDIO
    TITLE "Living On My Own"
    PERFORMER "Freddie Mercury"
    INDEX 00 30:26:73
    INDEX 01 30:27:58
    TRACK 10 AUDIO
    TITLE "Love Kills"
    PERFORMER "Freddie Mercury"
    INDEX 00 34:06:45
    INDEX 01 34:06:65
    TRACK 11 AUDIO
    TITLE "Barcelona"
    PERFORMER "Freddie Mercury"
    INDEX 00 38:35:43
    INDEX 01 38:36:35


    Format: FLAC
    Bitrate: lossless
    Größe: 325 MB

    Download

    * Share-Online *


    MfG TooOldToDieYoung

    Wenn es Probleme beim Entpacken gibt das aktuelle Winrar benutzen. Das Album besteht aus einer einzelnen Datei, die Lösung.

  2. #Free Download
    Power Free Uploader
    Registriert seit
    16.07.2014
    Beiträge
    2417
     

Berechtigungen

  • Neue Themen erstellen: Nein
  • Themen beantworten: Nein
  • Anhänge hochladen: Nein
  • Beiträge bearbeiten: Nein
  •