Votet für MyBoerse.bz
Topliste

Ergebnis 1 bis 3 von 3

Thema: Vanessa Mai - Regenbogen (2017) [Hi-Res]

  1. #1
    MyBoerse.bz Pro Member
    Registriert seit
    21.02.15
    Beiträge
    39.668
    Bedankt
    20
    Danke erhalten: 2.837

    Vanessa Mai - Regenbogen (2017) [Hi-Res]

    Vanessa Mai - Regenbogen (2017) [Hi-Res]



    Genre: Pop
    Quality: FLAC
    Total Time: 01:01:12
    Total Size: 453 Mb


    Tracklist:
    01. Und wenn ich traum
    02. Regenbogen
    03. Nie wieder
    04. Ich vermiss dich so
    05. Sternenmeer
    06. Liebe fragt nicht
    07. Echo
    08. Dieser eine Augenblick
    09. Schonster Moment
    10. Wenn das wirklich Liebe ist
    11. Wolke
    12. Unbekannter Engel
    13. Nachts an meinem Fenster
    14. Ja bei Nacht da leuchten all die Sterne
    15. Unser Lied
    16. Ich hatte niemals gedacht
    17. Ich kann heut Nacht nicht schlafen

    Download:

    FLORENFILE.COM


    UPLOADGIG.COM
    Geändert von whitebabaxs (14.01.18 um 13:29 Uhr)

  2. Folgende Benutzer haben sich bei whitebabaxs für diesen Beitrag bedankt:

    serotonon (21.01.18)

  3. #Free Download
    Power Free Uploader
    Registriert seit
    16.07.2014
    Beiträge
    2417
     

  4. #2
    MyBoerse.bz Pro Member Avatar von TooOldToDieYoung
    Registriert seit
    18.07.14
    Beiträge
    2.827
    Bedankt
    0
    Danke erhalten: 1.169

    Vanessa Mai - Regenbogen (2017)





    Tracklist:

    01. Und wenn ich traum
    02. Regenbogen
    03. Nie wieder
    04. Ich vermiss dich so
    05. Sternenmeer
    06. Liebe fragt nicht
    07. Echo
    08. Dieser eine Augenblick
    09. Schonster Moment
    10. Wenn das wirklich Liebe ist
    11. Wolke
    12. Unbekannter Engel
    13. Nachts an meinem Fenster
    14. Ja bei Nacht da leuchten all die Sterne
    15. Unser Lied
    16. Ich hatte niemals gedacht
    17. Ich kann heut Nacht nicht schlafen


    Log:
    Exact Audio Copy V1.0 beta 3 from 29. August 2011

    EAC extraction logfile from 30. September 2017, 14:42

    Vanessa Mai / Vanessa Mai - Regenbogen

    Used drive : HL-DT-STDVDRAM GSA-T20N Adapter: 2 ID: 0

    Read mode : Secure
    Utilize accurate stream : Yes
    Defeat audio cache : Yes
    Make use of C2 pointers : No

    Read offset correction : 667
    Overread into Lead-In and Lead-Out : No
    Fill up missing offset samples with silence : Yes
    Delete leading and trailing silent blocks : No
    Null samples used in CRC calculations : Yes
    Used interface : Native Win32 interface for Win NT & 2000

    Used output format : User Defined Encoder
    Selected bitrate : 128 kBit/s
    Quality : High
    Add ID3 tag : No
    Command line compressor : C:\Program Files\Exact Audio Copy\Flac\flac.exe
    Additional command line options : -V -8 %source%


    TOC of the extracted CD

    Track | Start | Length | Start sector | End sector
    ---------------------------------------------------------
    1 | 0:00.00 | 3:36.03 | 0 | 16202
    2 | 3:36.03 | 3:25.09 | 16203 | 31586
    3 | 7:01.12 | 3:50.53 | 31587 | 48889
    4 | 10:51.65 | 3:41.31 | 48890 | 65495
    5 | 14:33.21 | 3:29.23 | 65496 | 81193
    6 | 18:02.44 | 3:50.70 | 81194 | 98513
    7 | 21:53.39 | 3:16.67 | 98514 | 113280
    8 | 25:10.31 | 3:38.01 | 113281 | 129631
    9 | 28:48.32 | 3:21.25 | 129632 | 144731
    10 | 32:09.57 | 3:29.02 | 144732 | 160408
    11 | 35:38.59 | 3:39.28 | 160409 | 176861
    12 | 39:18.12 | 3:37.73 | 176862 | 193209
    13 | 42:56.10 | 3:21.22 | 193210 | 208306
    14 | 46:17.32 | 3:36.03 | 208307 | 224509
    15 | 49:53.35 | 3:20.29 | 224510 | 239538
    16 | 53:13.64 | 4:00.02 | 239539 | 257540
    17 | 57:13.66 | 3:58.23 | 257541 | 275413


    Range status and errors

    Selected range

    Filename D:\Музыка\Vanessa Mai flac\Vanessa Mai flac\Regenbogen (2017)\Vanessa Mai - Vanessa Mai - Regenbogen.wav

    Peak level 99.0 %
    Extraction speed 2.1 X
    Range quality 100.0 %
    Test CRC B6874FF5
    Copy CRC B6874FF5
    Copy OK

    No errors occurred


    AccurateRip summary

    Track 1 not present in database
    Track 2 not present in database
    Track 3 not present in database
    Track 4 not present in database
    Track 5 not present in database
    Track 6 not present in database
    Track 7 not present in database
    Track 8 not present in database
    Track 9 not present in database
    Track 10 not present in database
    Track 11 not present in database
    Track 12 not present in database
    Track 13 not present in database
    Track 14 not present in database
    Track 15 not present in database
    Track 16 not present in database
    Track 17 not present in database

    None of the tracks are present in the AccurateRip database

    End of status report

    ==== Log checksum 6A2469BCE506A2B4137164AB18E8A8DB8C53F816A51BC60B9C E9ABB47CB7AFA8 ====


    Cue:
    REM DISCID EC0E5811
    REM COMMENT "ExactAudioCopy v1.0b3"
    CATALOG 0889853949120
    PERFORMER "Vanessa Mai"
    TITLE "Vanessa Mai - Regenbogen"
    FILE "Vanessa Mai - Vanessa Mai - Regenbogen.flac" WAVE
    TRACK 01 AUDIO
    TITLE "Und wenn ich träum"
    PERFORMER "Vanessa Mai"
    ISRC DEA811700100
    INDEX 01 00:00:00
    TRACK 02 AUDIO
    TITLE "Regenbogen"
    PERFORMER "Vanessa Mai"
    ISRC DEA811700101
    INDEX 00 03:35:46
    INDEX 01 03:36:03
    TRACK 03 AUDIO
    TITLE "Nie wieder"
    PERFORMER "Vanessa Mai"
    ISRC DEA811700102
    INDEX 00 07:00:50
    INDEX 01 07:01:12
    TRACK 04 AUDIO
    TITLE "Ich vermiss dich so"
    PERFORMER "Vanessa Mai"
    ISRC DEA811700103
    INDEX 00 10:51:07
    INDEX 01 10:51:65
    TRACK 05 AUDIO
    TITLE "Sternenmeer"
    PERFORMER "Vanessa Mai"
    ISRC DEA811700104
    INDEX 01 14:33:21
    TRACK 06 AUDIO
    TITLE "Liebe fragt nicht"
    PERFORMER "Vanessa Mai"
    ISRC DEA811700105
    INDEX 00 18:02:12
    INDEX 01 18:02:44
    TRACK 07 AUDIO
    TITLE "Echo"
    PERFORMER "Vanessa Mai"
    ISRC DEA811700106
    INDEX 00 21:52:22
    INDEX 01 21:53:39
    TRACK 08 AUDIO
    TITLE "Dieser eine Augenblick"
    PERFORMER "Vanessa Mai"
    ISRC DEA811700107
    INDEX 00 25:10:05
    INDEX 01 25:10:31
    TRACK 09 AUDIO
    TITLE "Schönster Moment"
    PERFORMER "Vanessa Mai"
    ISRC DEA811700108
    INDEX 00 28:47:69
    INDEX 01 28:48:32
    TRACK 10 AUDIO
    TITLE "Wenn das wirklich Liebe ist"
    PERFORMER "Vanessa Mai"
    ISRC DEA811700109
    INDEX 00 32:08:11
    INDEX 01 32:09:57
    TRACK 11 AUDIO
    TITLE "Wolke"
    PERFORMER "Vanessa Mai"
    ISRC DEA811700110
    INDEX 00 35:37:44
    INDEX 01 35:38:59
    TRACK 12 AUDIO
    TITLE "Unbekannter Engel"
    PERFORMER "Vanessa Mai"
    ISRC DEA811700111
    INDEX 00 39:17:25
    INDEX 01 39:18:12
    TRACK 13 AUDIO
    TITLE "Nachts an meinem Fenster"
    PERFORMER "Vanessa Mai"
    ISRC DEA811700112
    INDEX 00 42:55:61
    INDEX 01 42:56:10
    TRACK 14 AUDIO
    TITLE "Ja bei Nacht da leuchten all die Sterne"
    PERFORMER "Vanessa Mai"
    ISRC DEA811700113
    INDEX 00 46:16:59
    INDEX 01 46:17:32
    TRACK 15 AUDIO
    TITLE "Unser Lied"
    PERFORMER "Vanessa Mai"
    ISRC DEA811700114
    INDEX 00 49:52:11
    INDEX 01 49:53:35
    TRACK 16 AUDIO
    TITLE "Ich hätte niemals gedacht"
    PERFORMER "Vanessa Mai"
    ISRC DEA811700115
    INDEX 00 53:12:38
    INDEX 01 53:13:64
    TRACK 17 AUDIO
    TITLE "Ich kann heut Nacht nicht schlafen"
    PERFORMER "Vanessa Mai"
    ISRC DEA811700116
    INDEX 00 57:13:27
    INDEX 01 57:13:66


    Format: FLAC
    Bitrate: lossless
    Größe: 453 MB

    Download

    * Share-Online *


    Geändert von TooOldToDieYoung (05.12.17 um 19:12 Uhr)
    MfG TooOldToDieYoung

    Wenn es Probleme beim Entpacken gibt das aktuelle Winrar benutzen. Das Album besteht aus einer einzelnen Datei, die Lösung.

  5. #3
    MyBoerse.bz Pro Member
    Registriert seit
    21.02.15
    Beiträge
    39.668
    Bedankt
    20
    Danke erhalten: 2.837
    link re-up

Berechtigungen

  • Neue Themen erstellen: Nein
  • Themen beantworten: Nein
  • Anhänge hochladen: Nein
  • Beiträge bearbeiten: Nein
  •