Votet für MyBoerse.bz
Topliste

Ergebnis 1 bis 1 von 1

Thema: Kiesza - Dearly Beloved (2017) 1080p

  1. #1
    MyBoerse.bz Pro Member
    Registriert seit
    28.06.15
    Beiträge
    2.980
    Bedankt
    0
    Danke erhalten: 1.106

    Kiesza - Dearly Beloved (2017) 1080p



    Info :

    Code:
    General
    Format                                   : MPEG-4
    Format profile                           : Base Media
    Codec ID                                 : isom (isom/iso2/avc1/mp41)
    File size                                : 71.7 MiB
    Duration                                 : 2mn 59s
    Overall bit rate                         : 3 343 Kbps
    ContentType                              : Movie
    Writing application                      : Lavf56.25.101
    rati                                     : (Binary)
    
    Video
    ID                                       : 1
    Format                                   : AVC
    Format/Info                              : Advanced Video Codec
    Format profile                           : High@L4
    Format settings, CABAC                   : Yes
    Format settings, ReFrames                : 2 frames
    Codec ID                                 : avc1
    Codec ID/Info                            : Advanced Video Coding
    Duration                                 : 2mn 59s
    Bit rate                                 : 3 213 Kbps
    Width                                    : 1 920 pixels
    Height                                   : 1 080 pixels
    Display aspect ratio                     : 16:9
    Frame rate mode                          : Constant
    Frame rate                               : 24.000 fps
    Color space                              : YUV
    Chroma subsampling                       : 4:2:0
    Bit depth                                : 8 bits
    Scan type                                : Progressive
    Bits/(Pixel*Frame)                       : 0.065
    Stream size                              : 68.9 MiB (96%)
    Color range                              : Limited
    Color primaries                          : BT.709
    Transfer characteristics                 : BT.709
    Matrix coefficients                      : BT.709
    
    Audio
    ID                                       : 2
    Format                                   : AAC
    Format/Info                              : Advanced Audio Codec
    Format profile                           : LC
    Codec ID                                 : 40
    Duration                                 : 2mn 59s
    Bit rate mode                            : Constant
    Bit rate                                 : 126 Kbps
    Channel(s)                               : 2 channels
    Channel positions                        : Front: L R
    Sampling rate                            : 44.1 KHz
    Frame rate                               : 43.066 fps (1024 spf)
    Compression mode                         : Lossy
    Stream size                              : 2.69 MiB (4%)
    Default                                  : Yes
    Alternate group                          : 1


    uploaded



  2. #Free Download
    Power Free Uploader
    Registriert seit
    16.07.2014
    Beiträge
    2417



     

Berechtigungen

  • Neue Themen erstellen: Nein
  • Themen beantworten: Nein
  • Anhänge hochladen: Nein
  • Beiträge bearbeiten: Nein
  •