NEW XXX STREAM & DOWNLOAD PARTNER

Immer Zugang zu den neusten Porno Streams und Downloads!

Ergebnis 1 bis 1 von 1

Thema: Resident Evil 1-6 Collection German 800p AC3 microHD x264 - RAIST

  1. #1
    MyBoerse.bz Member Avatar von sevencloves
    Registriert seit
    19.06.20
    Beiträge
    85
    Bedankt
    1
    Danke erhalten: 19

    Resident Evil 1-6 Collection German 800p AC3 microHD x264 - RAIST

    Resident Evil 1-6 Collection German 800p AC3 microHD x264 - RAIST




    Teil 1:
    In einer geheimen Forschungseinrichtung wird ein gefährlicher Virus freigesetzt, der sämtliche anwesenden Wissenschaftler und Mitarbeiter in nach Fleisch gierende zombie-hafte Kreaturen verwandelt. Eine Spezialeinheit des Militärs unter der Führung von Alice (Milla Jovovich) und Rain (Michelle Rodriguez) soll den Virus ausschalten, ehe er die Weltbevölkerung befallen kann. Dafür stehen nur noch drei Stunden Zeit zur Verfügung. In der Forschungseinrichtung erwartet die Spezialisten die Hölle, denn neben den "Zombies" sind auch die Versuchstiere, mutierte Hunde, freigelassen worden und der die Einrichtung leitende Zentralcomputer dreht ebenfalls durch. Die Labors werden zur Todesfalle...

    Teil 2:
    Alice (Milla Jovovich) wurde von der Umbrella Corporation für ein Experiment missbraucht, welches ihr nun übernatürliche Kräfte beschert. Diese braucht sie aber auch dringend, um in Raccoon City, der Stadt, in der sich das tödliche Virus vollständig ausgebreitet und die letzten Überlebenden in Untote verwandelt hat, bei ihrer Flucht aus der Stadt zu überleben. Allerdings kämpft sie nicht alleine gegen die Untoten, denn das S.T.A.R.S.-Mitglied Jill Valentine (Sienna Guilleroy) und vier weitere Überlebende, Terri Morales (Sandrine Holt), Carlos Oliviera (Oded Fehr), L.J. (Mike Epps) und Nicholai (Zack Ward), verteidigen ebenfalls ihr Leben, während sie versuchen, aus der Stadt zu flüchten.
    Neben den Untoten gilt es aber noch weitere Hindernisse zu überwinden. Die Umbrella Corporation versucht mit allen Mitteln die sechs ebenfalls am Entkommen zu hindern. Doch der größte Widersacher zeigt sich in dem geheimen Forschungsprojekt von Umbrella - dem Mutanten Nemesis...

    Teil 3:
    Das T-Virus der Umbrella Corporation hat mittlerweile fast die gesamte Menschheit dahingerafft, nur leider nicht ganz: Die Infizierten wandeln nämlich als Untote herum und trachten den wenigen nicht infizierten nach dem Leben. Alice (Milla Jovovich) macht sich zusammen mit einer Gruppe Überlebender auf den Weg nach Arcadia. In diesem Refugium in Alaska soll den Gerüchten nach ein Überleben noch möglich sein.
    Der Weg dorthin wird aber von Dr. Isaacs (Iain Glen) und der Umbrella Corporation zusätzlich erschwert, denn mit Hilfe einer Klonarmee will Isaacs endgültig die Kontrolle über die Infizierten und die noch Lebenden gewinnen. Als einziger Ausweg verbleibt für Alice sich dem Kampf zu stellen und die engültige Vernichtung der Umbrella Corp.

    Teil 4:
    Nachdem Alice (Milla Jovovich), gemeinsam mit ihren Klonen, das Hauptquartier von "Umbrella" in Tokio angegriffen und zerstört hatte, kam sie selbst nur knapp mit dem Leben davon, im Kampf gegen den ebenfalls mutierten Albert Wesker (Shawn Roberts).

    Mit einem kleinen Propellerflugzeug macht sie sich darauf hin auf den Weg nach Alaska, wo sie hofft, ihre Freunde wieder zu finden, die dort Zuflucht in einer virusfreien Kolonie suchten. Doch außer eine Vielzahl anderer Flugzeuge, trifft sie dort nur Claire (Ali Larter) an, die ihr Gedächtnis verloren hat. Als sie mit ihr nach Los Angeles fliegt, wo sie eine Spur der Anderen vermutet, erkennt sie auf dem Dach eines riesigen Gefängniskomplexes Menschen, die um Hilfe bitten. Mit großer Mühe landet sie dort und befindet sich augenblicklich nicht nur mitten im verseuchten Gebiet, sondern umzingelt von tausenden Zombies...

    Teil 5:
    Der Rückzug auf das Schiff entpuppt sich für Alice (Milla Jovovich) und ihre Verbündeten als Falle, denn unter der Führung von Jill (Sienna Guillory), die inzwischen von Umbrella kontrolliert wird, werden sie angegriffen und überwältigt. Alice verliert das Bewusstsein.

    Geweckt wird sie von ihrem Mann (Oded Fehr) in einem schmucken Einfamilienhaus, wo ihre Tochter Becky (Aryana Engineer) schon auf das Frühstück wartet. Doch die Idylle erweist sich schon nach kurzer Zeit als trügerisch.

    Teil6:
    In Washington erhält Alice (Milla Jovovich) überraschend eine Nachricht von der Red Queen: Es gibt ein über die Luft übertragbares Gegenmittel, um das T-Virus zu stoppen! Dazu muss Alice lediglich innerhalb von 48 Stunden zurück an den Ort, an dem alles begann: der Hive unter Raccoon City. Doch dort ist immer noch Albert Wesker (Shawn Roberts) und tatsächlich treibt sich auch Dr. Alexander Isaacs (Iain Glen) noch in den Ruinen der USA herum. Doch Alice ist fest entschlossen, das Antiserum freizusetzen, um die Horden von Infizierten zu stoppen und den letzten Überlebenden eine Zukunft zu ermöglichen.


    General
    Unique ID : 255915510165415945719016570107721388066 (0xC08788D025A157BF6DD5233DCE1B9022)
    Complete name : Resident.Evil.-.Afterlife.2010.German.800p.microHD.x264-RAIST.mkv
    Format : Matroska
    Format version : Version 4
    File size : 1.67 GiB
    Duration : 1 h 36 min
    Overall bit rate : 2 467 kb/s
    Encoded date : UTC 2020-05-12 07:14:55
    Writing application : HandBrake 1.3.1 2020010400
    Writing library : Lavf58.29.100
    ErrorDetectionType : Per level 1

    Video
    ID : 1
    Format : AVC
    Format/Info : Advanced Video Codec
    Format profile : [email protected]
    Format settings : CABAC / 4 Ref Frames
    Format settings, CABAC : Yes
    Format settings, Reference frames : 4 frames
    Codec ID : V_MPEG4/ISO/AVC
    Duration : 1 h 36 min
    Bit rate : 2 300 kb/s
    Width : 1 920 pixels
    Height : 798 pixels
    Display aspect ratio : 2.40:1
    Frame rate mode : Constant
    Frame rate : 23.976 (24000/1001) FPS
    Color space : YUV
    Chroma subsampling : 4:2:0
    Bit depth : 8 bits
    Scan type : Progressive
    Bits/(Pixel*Frame) : 0.063
    Stream size : 1.48 GiB (89%)
    Writing library : x264 core 157 r2935 545de2f
    Encoding settings : cabac=1 / ref=2 / deblock=1:-1:-1 / analyse=0x1:0x111 / me=hex / subme=6 / psy=1 / psy_rd=1.00:0.15 / mixed_ref=1 / me_range=16 / chroma_me=1 / trellis=1 / 8x8dct=0 / cqm=0 / deadzone=21,11 / fast_pskip=1 / chroma_qp_offset=-3 / threads=12 / lookahead_threads=2 / sliced_threads=0 / nr=0 / decimate=1 / interlaced=0 / bluray_compat=0 / constrained_intra=0 / bframes=3 / b_pyramid=2 / b_adapt=1 / b_bias=0 / direct=1 / weightb=1 / open_gop=0 / weightp=1 / keyint=240 / keyint_min=24 / scenecut=40 / intra_refresh=0 / rc_lookahead=30 / rc=abr / mbtree=1 / bitrate=2300 / ratetol=1.0 / qcomp=0.60 / qpmin=0 / qpmax=69 / qpstep=4 / vbv_maxrate=20000 / vbv_bufsize=25000 / nal_hrd=none / filler=0 / ip_ratio=1.40 / aq=1:1.00
    Default : Yes
    Forced : No
    Color range : Limited
    Color primaries : BT.709
    Transfer characteristics : BT.709
    Matrix coefficients : BT.709

    Audio
    ID : 2
    Format : AC-3
    Format/Info : Audio Coding 3
    Commercial name : Dolby Digital
    Codec ID : A_AC3
    Duration : 1 h 36 min
    Bit rate mode : Constant
    Bit rate : 224 kb/s
    Channel(s) : 6 channels
    Channel layout : L R C LFE Ls Rs
    Sampling rate : 48.0 kHz
    Frame rate : 31.250 FPS (1536 SPF)
    Compression mode : Lossy
    Delay relative to video : -5 ms
    Stream size : 155 MiB (9%)
    Title : Surround
    Language : German
    Service kind : Complete Main
    Default : Yes
    Forced : No

    General
    Unique ID : 59883298627500298218778989017013757426 (0x2D0D1A929B4793FF4DF957DB187125F2)
    Complete name : Resident.Evil.-.Apocalypse.2004.German.800p.microHD.x264-RAIST.mkv
    Format : Matroska
    Format version : Version 4
    File size : 1.71 GiB
    Duration : 1 h 37 min
    Overall bit rate : 2 507 kb/s
    Encoded date : UTC 2020-06-05 18:52:18
    Writing application : HandBrake 1.3.1 2020010400
    Writing library : Lavf58.29.100
    ErrorDetectionType : Per level 1

    Video
    ID : 1
    Format : AVC
    Format/Info : Advanced Video Codec
    Format profile : [email protected]
    Format settings : CABAC / 4 Ref Frames
    Format settings, CABAC : Yes
    Format settings, Reference frames : 4 frames
    Codec ID : V_MPEG4/ISO/AVC
    Duration : 1 h 37 min
    Bit rate : 2 300 kb/s
    Width : 1 920 pixels
    Height : 800 pixels
    Display aspect ratio : 2.40:1
    Frame rate mode : Constant
    Frame rate : 23.976 (24000/1001) FPS
    Color space : YUV
    Chroma subsampling : 4:2:0
    Bit depth : 8 bits
    Scan type : Progressive
    Bits/(Pixel*Frame) : 0.062
    Stream size : 1.53 GiB (89%)
    Writing library : x264 core 157 r2935 545de2f
    Encoding settings : cabac=1 / ref=2 / deblock=1:-1:-1 / analyse=0x1:0x111 / me=hex / subme=6 / psy=1 / psy_rd=1.00:0.15 / mixed_ref=1 / me_range=16 / chroma_me=1 / trellis=1 / 8x8dct=0 / cqm=0 / deadzone=21,11 / fast_pskip=1 / chroma_qp_offset=-3 / threads=12 / lookahead_threads=2 / sliced_threads=0 / nr=0 / decimate=1 / interlaced=0 / bluray_compat=0 / constrained_intra=0 / bframes=3 / b_pyramid=2 / b_adapt=1 / b_bias=0 / direct=1 / weightb=1 / open_gop=0 / weightp=1 / keyint=240 / keyint_min=24 / scenecut=40 / intra_refresh=0 / rc_lookahead=30 / rc=abr / mbtree=1 / bitrate=2300 / ratetol=1.0 / qcomp=0.60 / qpmin=0 / qpmax=69 / qpstep=4 / vbv_maxrate=20000 / vbv_bufsize=25000 / nal_hrd=none / filler=0 / ip_ratio=1.40 / aq=1:1.00
    Default : Yes
    Forced : No
    Color range : Limited
    Color primaries : BT.709
    Transfer characteristics : BT.709
    Matrix coefficients : BT.709

    Audio
    ID : 2
    Format : AC-3
    Format/Info : Audio Coding 3
    Commercial name : Dolby Digital
    Codec ID : A_AC3
    Duration : 1 h 37 min
    Bit rate mode : Constant
    Bit rate : 224 kb/s
    Channel(s) : 6 channels
    Channel layout : L R C LFE Ls Rs
    Sampling rate : 48.0 kHz
    Frame rate : 31.250 FPS (1536 SPF)
    Compression mode : Lossy
    Delay relative to video : -5 ms
    Stream size : 157 MiB (9%)
    Title : Surround
    Language : German
    Service kind : Complete Main
    Default : Yes
    Forced : No

    Menu
    00:00:00.000 : :Chapter 1
    00:04:34.691 : :Chapter 2
    00:07:24.194 : :Chapter 3
    00:13:04.617 : :Chapter 4
    00:17:04.524 : :Chapter 5
    00:20:08.082 : :Chapter 6
    00:27:45.497 : :Chapter 7
    00:32:20.856 : :Chapter 8
    00:35:26.291 : :Chapter 9
    00:41:14.013 : :Chapter 10
    00:46:14.188 : :Chapter 11
    00:51:02.017 : :Chapter 12
    00:56:25.716 : :Chapter 13
    01:01:18.508 : :Chapter 14
    01:05:53.199 : :Chapter 15
    01:09:57.318 : :Chapter 16
    01:15:34.113 : :Chapter 17
    01:20:01.630 : :Chapter 18
    01:24:04.706 : :Chapter 19
    01:31:03.124 : :Chapter 20

    General
    Unique ID : 59355234886130510041717651706145461786 (0x2CA76705266A45ED12CB52872D04D61A)
    Complete name : Resident.Evil.-.Extinction.2007.German.800p.microHD.x264-RAIST.mkv
    Format : Matroska
    Format version : Version 4
    File size : 1.60 GiB
    Duration : 1 h 34 min
    Overall bit rate : 2 442 kb/s
    Encoded date : UTC 2020-05-12 06:11:09
    Writing application : HandBrake 1.3.1 2020010400
    Writing library : Lavf58.29.100
    ErrorDetectionType : Per level 1

    Video
    ID : 1
    Format : AVC
    Format/Info : Advanced Video Codec
    Format profile : [email protected]
    Format settings : CABAC / 4 Ref Frames
    Format settings, CABAC : Yes
    Format settings, Reference frames : 4 frames
    Codec ID : V_MPEG4/ISO/AVC
    Duration : 1 h 34 min
    Bit rate : 2 169 kb/s
    Nominal bit rate : 2 300 kb/s
    Width : 1 920 pixels
    Height : 800 pixels
    Display aspect ratio : 2.40:1
    Frame rate mode : Constant
    Frame rate : 23.976 (24000/1001) FPS
    Color space : YUV
    Chroma subsampling : 4:2:0
    Bit depth : 8 bits
    Scan type : Progressive
    Bits/(Pixel*Frame) : 0.059
    Stream size : 1.42 GiB (89%)
    Writing library : x264 core 157 r2935 545de2f
    Encoding settings : cabac=1 / ref=2 / deblock=1:-1:-1 / analyse=0x1:0x111 / me=hex / subme=6 / psy=1 / psy_rd=1.00:0.15 / mixed_ref=1 / me_range=16 / chroma_me=1 / trellis=1 / 8x8dct=0 / cqm=0 / deadzone=21,11 / fast_pskip=1 / chroma_qp_offset=-3 / threads=12 / lookahead_threads=2 / sliced_threads=0 / nr=0 / decimate=1 / interlaced=0 / bluray_compat=0 / constrained_intra=0 / bframes=3 / b_pyramid=2 / b_adapt=1 / b_bias=0 / direct=1 / weightb=1 / open_gop=0 / weightp=1 / keyint=240 / keyint_min=24 / scenecut=40 / intra_refresh=0 / rc_lookahead=30 / rc=abr / mbtree=1 / bitrate=2300 / ratetol=1.0 / qcomp=0.60 / qpmin=0 / qpmax=69 / qpstep=4 / vbv_maxrate=20000 / vbv_bufsize=25000 / nal_hrd=none / filler=0 / ip_ratio=1.40 / aq=1:1.00
    Default : Yes
    Forced : No
    Color range : Limited
    Color primaries : BT.709
    Transfer characteristics : BT.709
    Matrix coefficients : BT.709

    Audio
    ID : 2
    Format : AC-3
    Format/Info : Audio Coding 3
    Commercial name : Dolby Digital
    Codec ID : A_AC3
    Duration : 1 h 34 min
    Bit rate mode : Constant
    Bit rate : 224 kb/s
    Channel(s) : 6 channels
    Channel layout : L R C LFE Ls Rs
    Sampling rate : 48.0 kHz
    Frame rate : 31.250 FPS (1536 SPF)
    Compression mode : Lossy
    Delay relative to video : -5 ms
    Stream size : 151 MiB (9%)
    Title : Surround
    Language : German
    Service kind : Complete Main
    Default : Yes
    Forced : No

    General
    Unique ID : 324047964670007270055329585835418976641 (0xF3C95E2BE9EA7BF0686B9AF18D620181)
    Complete name : Resident.Evil.-.Retribution.2012.German.800p.microHD.x264-RAIST.mkv
    Format : Matroska
    Format version : Version 4
    File size : 1.57 GiB
    Duration : 1 h 35 min
    Overall bit rate : 2 355 kb/s
    Encoded date : UTC 2020-05-12 05:01:20
    Writing application : HandBrake 1.3.1 2020010400
    Writing library : Lavf58.29.100
    ErrorDetectionType : Per level 1

    Video
    ID : 1
    Format : AVC
    Format/Info : Advanced Video Codec
    Format profile : [email protected]
    Format settings : CABAC / 4 Ref Frames
    Format settings, CABAC : Yes
    Format settings, Reference frames : 4 frames
    Codec ID : V_MPEG4/ISO/AVC
    Duration : 1 h 35 min
    Bit rate : 2 084 kb/s
    Nominal bit rate : 2 300 kb/s
    Width : 1 920 pixels
    Height : 800 pixels
    Display aspect ratio : 2.40:1
    Frame rate mode : Constant
    Frame rate : 23.976 (24000/1001) FPS
    Color space : YUV
    Chroma subsampling : 4:2:0
    Bit depth : 8 bits
    Scan type : Progressive
    Bits/(Pixel*Frame) : 0.057
    Stream size : 1.39 GiB (88%)
    Writing library : x264 core 157 r2935 545de2f
    Encoding settings : cabac=1 / ref=2 / deblock=1:-1:-1 / analyse=0x1:0x111 / me=hex / subme=6 / psy=1 / psy_rd=1.00:0.15 / mixed_ref=1 / me_range=16 / chroma_me=1 / trellis=1 / 8x8dct=0 / cqm=0 / deadzone=21,11 / fast_pskip=1 / chroma_qp_offset=-3 / threads=12 / lookahead_threads=2 / sliced_threads=0 / nr=0 / decimate=1 / interlaced=0 / bluray_compat=0 / constrained_intra=0 / bframes=3 / b_pyramid=2 / b_adapt=1 / b_bias=0 / direct=1 / weightb=1 / open_gop=0 / weightp=1 / keyint=240 / keyint_min=24 / scenecut=40 / intra_refresh=0 / rc_lookahead=30 / rc=abr / mbtree=1 / bitrate=2300 / ratetol=1.0 / qcomp=0.60 / qpmin=0 / qpmax=69 / qpstep=4 / vbv_maxrate=20000 / vbv_bufsize=25000 / nal_hrd=none / filler=0 / ip_ratio=1.40 / aq=1:1.00
    Default : Yes
    Forced : No
    Color range : Limited
    Color primaries : BT.709
    Transfer characteristics : BT.709
    Matrix coefficients : BT.709

    Audio
    ID : 2
    Format : AC-3
    Format/Info : Audio Coding 3
    Commercial name : Dolby Digital
    Codec ID : A_AC3
    Duration : 1 h 35 min
    Bit rate mode : Constant
    Bit rate : 224 kb/s
    Channel(s) : 6 channels
    Channel layout : L R C LFE Ls Rs
    Sampling rate : 48.0 kHz
    Frame rate : 31.250 FPS (1536 SPF)
    Compression mode : Lossy
    Delay relative to video : -5 ms
    Stream size : 153 MiB (10%)
    Title : Surround
    Language : German
    Service kind : Complete Main
    Default : Yes
    Forced : No

    Menu
    00:00:00.000 : :00:00:00.000
    00:07:00.879 : :00:07:00.878
    00:14:33.164 : :00:14:33.038
    00:18:56.010 : :00:18:56.009
    00:24:25.297 : :00:24:25.297
    00:29:32.187 : :00:29:32.187
    00:34:28.149 : :00:34:28.149
    00:38:56.835 : :00:38:56.834
    00:45:30.436 : :00:45:30.436
    00:50:28.442 : :00:50:28.442
    00:54:43.071 : :00:54:43.071
    00:59:54.508 : :00:59:54.507
    01:04:41.920 : :01:04:41.919
    01:10:33.896 : :01:10:33.896
    01:16:16.906 : :01:16:16.905
    01:21:29.301 : :01:21:29.301
    01:25:38.050 : :01:25:38.007

    General
    Unique ID : 130340998543741373749242254021624166934 (0x620EC36193F947158E8FC14E84057A16)
    Complete name : Resident.Evil.-.The.Final.Chapter.2016.German.800p.microHD.x264-RAIST.mkv
    Format : Matroska
    Format version : Version 4
    File size : 1.81 GiB
    Duration : 1 h 46 min
    Overall bit rate : 2 430 kb/s
    Encoded date : UTC 2020-06-05 20:05:22
    Writing application : HandBrake 1.3.1 2020010400
    Writing library : Lavf58.29.100
    ErrorDetectionType : Per level 1

    Video
    ID : 1
    Format : AVC
    Format/Info : Advanced Video Codec
    Format profile : [email protected]
    Format settings : CABAC / 4 Ref Frames
    Format settings, CABAC : Yes
    Format settings, Reference frames : 4 frames
    Codec ID : V_MPEG4/ISO/AVC
    Duration : 1 h 46 min
    Bit rate : 2 157 kb/s
    Nominal bit rate : 2 300 kb/s
    Width : 1 920 pixels
    Height : 800 pixels
    Display aspect ratio : 2.40:1
    Frame rate mode : Constant
    Frame rate : 23.976 (24000/1001) FPS
    Color space : YUV
    Chroma subsampling : 4:2:0
    Bit depth : 8 bits
    Scan type : Progressive
    Bits/(Pixel*Frame) : 0.059
    Stream size : 1.61 GiB (89%)
    Writing library : x264 core 157 r2935 545de2f
    Encoding settings : cabac=1 / ref=2 / deblock=1:-1:-1 / analyse=0x1:0x111 / me=hex / subme=6 / psy=1 / psy_rd=1.00:0.15 / mixed_ref=1 / me_range=16 / chroma_me=1 / trellis=1 / 8x8dct=0 / cqm=0 / deadzone=21,11 / fast_pskip=1 / chroma_qp_offset=-3 / threads=12 / lookahead_threads=2 / sliced_threads=0 / nr=0 / decimate=1 / interlaced=0 / bluray_compat=0 / constrained_intra=0 / bframes=3 / b_pyramid=2 / b_adapt=1 / b_bias=0 / direct=1 / weightb=1 / open_gop=0 / weightp=1 / keyint=240 / keyint_min=24 / scenecut=40 / intra_refresh=0 / rc_lookahead=30 / rc=abr / mbtree=1 / bitrate=2300 / ratetol=1.0 / qcomp=0.60 / qpmin=0 / qpmax=69 / qpstep=4 / vbv_maxrate=20000 / vbv_bufsize=25000 / nal_hrd=none / filler=0 / ip_ratio=1.40 / aq=1:1.00
    Default : Yes
    Forced : No
    Color range : Limited
    Color primaries : BT.709
    Transfer characteristics : BT.709
    Matrix coefficients : BT.709

    Audio
    ID : 2
    Format : AC-3
    Format/Info : Audio Coding 3
    Commercial name : Dolby Digital
    Codec ID : A_AC3
    Duration : 1 h 46 min
    Bit rate mode : Constant
    Bit rate : 224 kb/s
    Channel(s) : 6 channels
    Channel layout : L R C LFE Ls Rs
    Sampling rate : 48.0 kHz
    Frame rate : 31.250 FPS (1536 SPF)
    Compression mode : Lossy
    Delay relative to video : -5 ms
    Stream size : 171 MiB (9%)
    Title : Surround
    Language : German
    Service kind : Complete Main
    Default : Yes
    Forced : No

    Menu
    00:00:00.792 : :Chapter 17



    Download: Turbobit.net,Hitfile.net,Megaload.to und Rapidgator.net
    Bitte die Seite Bewerten
    Klick auf "Bedanken" ("Gefällt mir") haltet ihr den Post am Leben


    Turbobit.net:






















    Hitfile.net:






















    Rapidgator.net:





















    Megaload.to:























  2. Folgende Benutzer haben sich bei sevencloves für diesen Beitrag bedankt:

    aporeiter (26.06.20)

  3. #Free Download
    Power Free Uploader
    Registriert seit
    16.07.2014
    Beiträge
    2417
     

Berechtigungen

  • Neue Themen erstellen: Nein
  • Themen beantworten: Nein
  • Anhänge hochladen: Nein
  • Beiträge bearbeiten: Nein
  •