NEW XXX STREAM & DOWNLOAD PARTNER

Immer Zugang zu den neusten Porno Streams und Downloads!

Ergebnis 1 bis 1 von 1

Thema: The BRIT Awards 2020 720p HDTV x264-LiNKLE

  1. #1
    MyBoerse.bz Pro Member
    Registriert seit
    28.06.15
    Beiträge
    11.246
    Bedankt
    0
    Danke erhalten: 7.276

    The BRIT Awards 2020 720p HDTV x264-LiNKLE



    Descrip :

    British comedian Jack Whitehall hosted as performers like Harry Styles, Billie Eilish, Lewis Capaldi and Lizzo took the stage.


    Info :

    Code:
    General
    Format                                   : Matroska
    Format version                           : Version 4 / Version 2
    File size                                : 2.44 GiB
    Duration                                 : 1 h 42 min
    Overall bit rate                         : 3 414 kb/s
    Movie name                               : The BRIT Awards 2020
    Writing application                      : no_variable_data
    Writing library                          : no_variable_data
    
    Video
    ID                                       : 1
    Format                                   : AVC
    Format/Info                              : Advanced Video Codec
    Format profile                           : [email protected]
    Format settings                          : CABAC / 5 Ref Frames
    Format settings, CABAC                   : Yes
    Format settings, RefFrames               : 5 frames
    Codec ID                                 : V_MPEG4/ISO/AVC
    Duration                                 : 1 h 42 min
    Bit rate                                 : 2 962 kb/s
    Width                                    : 1 280 pixels
    Height                                   : 720 pixels
    Display aspect ratio                     : 16:9
    Frame rate mode                          : Constant
    Frame rate                               : 50.000 FPS
    Color space                              : YUV
    Chroma subsampling                       : 4:2:0
    Bit depth                                : 8 bits
    Scan type                                : Progressive
    Bits/(Pixel*Frame)                       : 0.064
    Stream size                              : 2.11 GiB (87%)
    Writing library                          : x264 core 159 r2991 1771b55
    Encoding settings                        : cabac=1 / ref=5 / deblock=1:0:0 / analyse=0x3:0x113 / me=hex / subme=8 / psy=1 / psy_rd=1.00:0.00 / mixed_ref=1 / me_range=16 / chroma_me=1 / trellis=2 / 8x8dct=1 / cqm=0 / deadzone=21,11 / fast_pskip=1 / chroma_qp_offset=-2 / threads=22 / lookahead_threads=3 / sliced_threads=0 / nr=0 / decimate=1 / interlaced=0 / bluray_compat=0 / constrained_intra=0 / bframes=3 / b_pyramid=2 / b_adapt=1 / b_bias=0 / direct=3 / weightb=1 / open_gop=0 / weightp=2 / keyint=250 / keyint_min=25 / scenecut=40 / intra_refresh=0 / rc_lookahead=50 / rc=crf / mbtree=1 / crf=23.0 / qcomp=0.60 / qpmin=0 / qpmax=69 / qpstep=4 / ip_ratio=1.40 / aq=1:1.00
    Language                                 : English
    Default                                  : Yes
    Forced                                   : No
    Color range                              : Limited
    Matrix coefficients                      : BT.709
    
    Audio
    ID                                       : 2
    Format                                   : MPEG Audio
    Format version                           : Version 1
    Format profile                           : Layer 2
    Codec ID                                 : A_MPEG/L2
    Codec ID/Hint                            : MP2
    Duration                                 : 1 h 42 min
    Bit rate mode                            : Constant
    Bit rate                                 : 384 kb/s
    Channel(s)                               : 2 channels
    Sampling rate                            : 48.0 kHz
    Compression mode                         : Lossy
    Delay relative to video                  : 30 ms
    Stream size                              : 281 MiB (11%)
    Language                                 : English
    Default                                  : Yes
    Forced                                   : No


    Hoster : Turbobit

    720p :

    Format : mkv
    AAC
    Size : 2.44 GB

    Pasv0rt 3718


  2. #Free Download
    Power Free Uploader
    Registriert seit
    16.07.2014
    Beiträge
    2417
     

Berechtigungen

  • Neue Themen erstellen: Nein
  • Themen beantworten: Nein
  • Anhänge hochladen: Nein
  • Beiträge bearbeiten: Nein
  •