PDA

Archiv verlassen und diese Seite im Standarddesign anzeigen : Fletch 2 - Der Troublemaker kehrt zurück 1989 AC3D 720p HDTV x264 - marban



marban
23.07.14, 11:31
Fletch 2 - Der Troublemaker kehrt zurück (1989)
HDTV x264

[Link nur für registrierte und freigeschaltete Benutzer sichtbar] ([Link nur für registrierte und freigeschaltete Benutzer sichtbar])

Die deutsche Tonspur kommt von der DVD

Infos:

Fletch hat eine riesige Plantage in Louisiana geerbt. Der Ärger beginnt, als eine schöne Rechtsanwältin auf mysteriöse Weise hinscheidet, ein benachbarter Jurist (Hal Holbrook) dem Reporter rät, die Stadt zu verlassen, und eine aufregende Grundstücksmaklerin (Julianne Phillips) ihm mit Nachdruck ein Angebot macht, das Fletch kaum ablehnen kann...Meisterschützen.

Mediainfo:



Format : Matroska
Format version : Version 4 / Version 2
File size : 4.39 GiB
Duration : 1h 34mn
Overall bit rate : 6 627 Kbps
Encoded date : UTC 2014-07-08 16:56:16
Writing application : mkvmerge v6.9.1 ('Blue Panther') 64bit built on Apr 18 2014 18:23:38
Writing library : libebml v1.3.0 + libmatroska v1.4.1

Video
ID : 1
Format : AVC
Format/Info : Advanced Video Codec
Format profile : [email protected]
Format settings, CABAC : Yes
Format settings, ReFrames : 9 frames
Codec ID : V_MPEG4/ISO/AVC
Duration : 1h 34mn
Bit rate : 5 664 Kbps
Width : 1 280 pixels
Height : 716 pixels
Display aspect ratio : 16:9
Frame rate mode : Constant
Frame rate : 23.976 fps
Color space : YUV
Chroma subsampling : 4:2:0
Bit depth : 8 bits
Scan type : Progressive
Bits/(Pixel*Frame) : 0.258
Stream size : 3.75 GiB (85%)
Writing library : x264 core 120 r2164 da19765
Encoding settings : cabac=1 / ref=9 / deblock=1:-2:-2 / analyse=0x3:0x133 / me=umh / subme=10 / psy=1 / psy_rd=1.10:0.10 / mixed_ref=1 / me_range=32 / chroma_me=1 / trellis=2 / 8x8dct=1 / cqm=0 / deadzone=6,6 / fast_pskip=1 / chroma_qp_offset=-6 / threads=6 / sliced_threads=0 / nr=0 / decimate=0 / interlaced=0 / bluray_compat=0 / constrained_intra=0 / bframes=8 / b_pyramid=2 / b_adapt=2 / b_bias=0 / direct=3 / weightb=1 / open_gop=0 / weightp=2 / keyint=240 / keyint_min=22 / scenecut=40 / intra_refresh=0 / rc=crf / mbtree=0 / crf=18.0 / qcomp=0.80 / qpmin=0 / qpmax=69 / qpstep=4 / ip_ratio=1.10 / pb_ratio=1.10 / aq=2:0.80
Language : English
Default : Yes
Forced : No

Audio #1
ID : 2
Format : AC-3
Format/Info : Audio Coding 3
Mode extension : CM (complete main)
Format settings, Endianness : Big
Codec ID : A_AC3
Duration : 1h 34mn
Bit rate mode : Constant
Bit rate : 448 Kbps
Channel(s) : 2 channels
Channel positions : Front: L R
Sampling rate : 48.0 KHz
Bit depth : 16 bits
Compression mode : Lossy
Delay relative to video : 4ms
Stream size : 304 MiB (7%)
Language : German
Default : No
Forced : No

Audio #2
ID : 3
Format : AC-3
Format/Info : Audio Coding 3
Mode extension : CM (complete main)
Format settings, Endianness : Big
Codec ID : A_AC3
Duration : 1h 34mn
Bit rate mode : Constant
Bit rate : 384 Kbps
Channel(s) : 2 channels
Channel positions : Front: L R
Sampling rate : 48.0 KHz
Bit depth : 16 bits
Compression mode : Lossy
Delay relative to video : 28ms
Stream size : 261 MiB (6%)
Language : English
Default : Yes
Forced : No

Text #1
ID : 4
Format : VobSub
Muxing mode : zlib
Codec ID : S_VOBSUB
Codec ID/Info : The same subtitle format used on DVDs
Language : German
Default : No
Forced : No

Text #2
ID : 5
Format : UTF-8
Codec ID : S_TEXT/UTF8
Codec ID/Info : UTF-8 Plain Text
Language : English
Default : Yes
Forced : No




Format: MKV | Größe: 4,3GB | Genre: Komödie | Kein Passwort

Hoster:
[Link nur für registrierte und freigeschaltete Benutzer sichtbar] | [Link nur für registrierte und freigeschaltete Benutzer sichtbar]

Download ([Link nur für registrierte und freigeschaltete Benutzer sichtbar])